Wandering Gravity
Nazzo-Non-Heat

EXTREME

Level: 10
BPM: 170
Notes: 888

1
口口口口 |----|
口口口口 |----|
口口口口 |----|
口口口口 |----|
2
②口口① |①---|
口口口口 |②---|
②口口①
口口口口

口口口口
③④⑤⑥
口口⑨⑧ |③④⑤⑥|
⑦口口口 |⑦-⑧⑨|
3
④⑤⑥⑦ |①②③-|
口口口口 |④⑤⑥⑦|
②①口口
口口口③

口口口口
口⑭⑬口
口⑫⑪口 |⑧-⑨⑩|
⑧⑩⑨口 |⑪⑫⑬⑭|
4
口口口口 |①---|
②口口① |②---|
②口口①
口口口口

⑥⑤④③
口口口口
口口口⑦ |③④⑤⑥|
⑧⑨口口 |⑦-⑧⑨|
5
口口口口 |①②③-|
⑦⑥⑤④ |④⑤⑥⑦|
③口口口
口口①②

⑩口口⑨
口口口口
⑭口⑧⑬ |⑧-⑨⑩|
口⑫⑪口 |⑪⑫⑬⑭|
6
口②①口 |①---|
②口口① |②---|
口口口口
口口口口

口口口口
口口口⑦
⑧⑨口口 |③④⑤⑥|
⑥⑤④③ |⑦-⑧⑨|
7
⑦⑥⑤④ |①②③-|
③口口口 |④⑤⑥⑦|
口口①②
口口口口

口口口口
口⑭⑬⑧
口⑫⑪口 |⑧-⑨⑩|
口⑩⑨口 |⑪⑫⑬⑭|
8
口③③① |①--②|
②⑥⑤口 |--③-|
口⑤⑥① |-④--|
②④④口 |⑤--⑥|
9
④⑭⑬① |--①②|
⑧⑩⑨⑤ |③④⑤⑥|
②⑫⑪③ |⑦⑧⑨⑩|
⑥口口⑦ |⑪⑫⑬⑭|
10
②口口① |①---|
口口口口 |②---|
②口口①
口口口口

口口口口
③④⑤⑥
口口⑨⑧ |③④⑤⑥|
⑦口口口 |⑦-⑧⑨|
11
④⑤⑥⑦ |①②③-|
口口口口 |④⑤⑥⑦|
②①口口
口口口③

口口口口
口⑭⑬口
口⑫⑪口 |⑧-⑨⑩|
⑧⑩⑨口 |⑪⑫⑬⑭|
12
口口口口 |①---|
②口口① |②---|
②口口①
口口口口

⑥⑤④③
口口口口
口口口⑦ |③④⑤⑥|
⑧⑨口口 |⑦-⑧⑨|
13
口口口口 |①②③-|
⑦⑥⑤④ |④⑤⑥⑦|
③口口口
口口①②

⑩口口⑨
口口口口
⑭口⑧⑬ |⑧-⑨⑩|
口⑫⑪口 |⑪⑫⑬⑭|
14
口②①口 |①---|
②口口① |②---|
口口口口
口口口口

口口口口
口口口⑦
⑧⑨口口 |③④⑤⑥|
⑥⑤④③ |⑦-⑧⑨|
15
⑦⑥⑤④ |①②③-|
③口口口 |④⑤⑥⑦|
口口①②
口口口口

口口口口
口⑭⑬⑧
口⑫⑪口 |⑧-⑨⑩|
口⑩⑨口 |⑪⑫⑬⑭|
16
口③③① |①--②|
②⑥⑤口 |--③-|
口⑤⑥① |-④--|
②④④口 |⑤--⑥|
17
⑤⑤口④ |①②③④⑤---|
口口口③ |-⑥--|
⑥⑦口② |⑦--⑧|
⑨口⑧① |--⑨-|
18
⑥②④⑦ |①②③④|
⑤①口⑧ |⑤-⑥-⑦⑧⑨⑩|
③口口⑨
口口口⑩

口⑰⑱口
口⑮⑯口
口⑬⑭口 |⑪⑫⑬⑭|
口⑪⑫口 |⑮⑯⑰⑱|
19
口口口口 |①---|
口口口② |--②-|
①④④② |--③-|
①③口③ |--④-|
20
①①口口 |----|
①口口口 |--①-|
口口口口 |--②-|
②口口口 |----|
21
口口口口 |①---|
②口口口 |--②-|
②④④① |--③-|
③口③① |--④-|
22
口口①① |----|
口口口① |--①-|
口口口口 |--②-|
口口口② |----|
23
口口口口 |①---|
口口口② |--②-|
①④④② |--③-|
①③口③ |--④-|
24
①①口口 |----|
①口口口 |--①-|
口口口口 |--②-|
②口口口 |----|
25
口③③口 |①--②|
③口口③ |--③-|
口①①口
口口②口

⑥口口⑥
口⑥⑥口
口口口④ |④-⑤-|
口⑤⑦口 |⑥--⑦|
26
口口③口 |--①-|
②口口③ |②-③-|
口①①口
①口口①

⑧口口⑦
口口口口
⑥口⑨⑤ |--④⑤|
口④口口 |⑥⑦⑧⑨|
27
口①⑤口 |①-②③|
口口②④ |④-⑤-|
口口口口
口口③口

⑨口口口
⑧⑥⑩口
口口口口 |⑥⑦⑧-|
口⑦⑪口 |⑨-⑩⑪|
28
口③④② |①-②-|
口⑬⑭① |③④⑤⑥|
⑦⑤⑥⑧ |⑦⑧⑨⑩|
⑨⑪⑫⑩ |⑪⑫⑬⑭|
29
口口②④ |①-②③|
①口口⑤ |④-⑤-|
口口③口
口口口口

⑧⑥口口
⑨口口口
口⑦口口 |⑥⑦⑧-|
⑪口口⑩ |⑨-⑩⑪|
30
口⑥⑤口 |①②③④|
口④③口 |⑤⑥⑦⑧|
②口口①
口⑧⑦口

⑯口口⑮
口口口口
⑭⑩⑨⑬ |⑨⑩⑪⑫|
⑫口口⑪ |⑬⑭⑮⑯|
31
口⑤①口 |①-②③|
④②口口 |④-⑤-|
口口口口
口③口口

口口口⑨
口⑩⑥⑧
口口口口 |⑥⑦⑧-|
口⑪⑦口 |⑨-⑩⑪|
32
②④③口 |①-②-|
①口口口 |③④⑤⑥|
口⑥⑤口
口口口口

⑭口口⑬
口口口口
⑩口口⑨ |⑦⑧⑨⑩|
⑧⑫⑪⑦ |⑪⑫⑬⑭|
33
口口⑤口 |①②③④|
④③②① |⑤-⑥⑦|
口⑦口口
⑥口口口

⑭⑩口⑪
口⑬⑫口
口口⑧口 |⑧⑨⑩-|
口口口⑨ |⑪⑫⑬⑭|
34
口⑦口口 |①-②③|
②口口⑤ |④⑤⑥⑦|
⑥③④口
口口①口

⑭口⑧口
口⑪⑫口
口⑮口⑨ |⑧⑨⑩⑪|
口⑩⑬口 |⑫⑬⑭⑮|
35
口口口口 |①---|
口口口口 |②---|
②口①口
口口口口

口⑨口③
⑩口④⑦
口口⑧⑤ |③④⑤⑥|
口口⑥口 |⑦⑧⑨⑩|
36
⑩⑩口⑤ |①②③④|
口③⑥⑨ |⑤⑥⑦⑧|
④①口⑦ |⑨-⑩-|
②⑩⑧口 |----|
37
口口口口 |①---|
口口口口 |②---|
口①口②
口口口口

③口⑨口
⑦④口⑩
⑤⑧口口 |③④⑤⑥|
口⑥口口 |⑦⑧⑨⑩|
38
⑤口⑩⑩ |①②③④|
⑨⑥③口 |⑤⑥⑦⑧|
⑦口①④ |⑨-⑩-|
口⑧⑩② |----|
39
口口口口 |①---|
口口口口 |②---|
②口①口
口口口口

口⑨口③
⑩口④⑦
口口⑧⑤ |③④⑤⑥|
口口⑥口 |⑦⑧⑨⑩|
40
⑩⑩口⑤ |①②③④|
口③⑥⑨ |⑤⑥⑦⑧|
④①口⑦ |⑨-⑩-|
②⑩⑧口 |----|
41
口口口口 |①---|
口口口口 |②---|
口①口②
口口口口

③口⑨口
⑦④口⑩
⑤⑧口口 |③④⑤⑥|
口⑥口口 |⑦⑧⑨⑩|
42
⑤口口⑩ |①②③④|
⑨⑥③口 |⑤⑥⑦⑧|
⑦口①④ |⑨-⑩-|
口⑧口② |----|
43
口口口⑤ |①-②-|
④⑧③⑥ |③-④-|
口⑦口② |⑤-⑥-|
①口①口 |⑦-⑧-|
44
口口①口 |①-②-|
口口②口 |③-④-|
④口口口
③口口口

口口口⑤
⑥口⑧口
口口口⑦ |⑤-⑥-|
口口口口 |⑦-⑧-|
45
①口③③ |①--②|
③②口口 |--③-|
口口⑤⑤ |-④--|
⑤④①① |⑤---|
46
①口③口 |①--②|
③②口③ |--③-|
口口⑤⑤ |-④--|
⑤④①① |⑤---|
47
②口口口 |--①-|
③⑥⑤口 |②-③-|
口⑦④口 |④-⑤-|
口口口① |⑥-⑦-|
48
口口口③ |①-②-|
口口口口 |③-④-|
②口口口
④口口①

⑥口⑦口
口⑧⑤⑨
⑩口⑪口 |⑤-⑥⑦|
口口口口 |⑧⑨⑩⑪|
49
口③口③ |①--②|
②口③口 |--③-|
口⑤⑤⑤ |-④--|
④①①① |⑤---|
50
①口③口 |①--②|
③口口③ |--③-|
口口口口
口②①①

⑤口口口
口⑦口口
口④⑧口 |-④--|
口口口⑥ |⑤⑥⑦⑧|
51
口口口⑤ |①-②-|
④⑧③⑥ |③-④-|
口⑦口② |⑤-⑥-|
①口口口 |⑦-⑧-|
52
口口①口 |①-②-|
口口②口 |③-④-|
④口口口
③口口口

口口口⑤
⑥口⑧口
口口口⑦ |⑤-⑥-|
口口口口 |⑦-⑧-|
53
①口③③ |①--②|
③②口口 |--③-|
口口⑤⑤ |-④--|
⑤④①① |⑤---|
54
①口③口 |①--②|
③②口③ |--③-|
⑦⑤⑥⑧ |-④--|
口④①① |⑤⑥⑦⑧|
55
①②③④ |①②③④|
口⑤⑥口 |⑤⑥⑦⑧|
口口口口
⑦⑧口口

⑬⑭⑮⑯
口口口口
口⑪⑫口 |⑨⑩⑪⑫|
口口⑨⑩ |⑬⑭⑮⑯|
56
口口口口 |①②③④|
⑦口口⑧ |⑤⑥⑦⑧|
①口口②
③④⑤⑥

⑮口口⑯
口⑨⑩口
⑬⑪⑫⑭ |⑨⑩⑪⑫|
口口口口 |⑬⑭⑮⑯|
57
口⑤⑥口 |①②③④|
⑦⑧口口 |⑤⑥⑦⑧|
口口口口
①②③④

口口口口
口口⑨⑩
口⑪⑫口 |⑨⑩⑪⑫|
⑬⑭⑮⑯ |⑬⑭⑮⑯|
58
①口口② |①②③④|
③④⑤⑥ |⑤⑥⑦⑧|
口⑦⑧口
口口口口

⑮⑨⑩⑯
口口口口
⑪口口⑫ |⑨⑩⑪⑫|
口⑬⑭口 |⑬⑭⑮⑯|
59
口口②口 |①---|
①口口口 |--②-|
③口②③ |----|
①口口口 |③---|
60
⑧口口⑦ |①②③④|
⑩⑩⑤⑥ |⑤⑥⑦⑧|
口③④口 |⑨---|
①②⑨⑨ |--⑩-|
61
⑧口口⑨ |----|
⑦⑥口口 |①---|
①⑤④① |②③④⑤|
口口③② |⑥⑦⑧⑨|
62
口②②口 |①---|
口口口口 |--②-|
口口口口
①①口口

口口口口
口口口口
口⑤⑥口 |----|
③④口口 |③④⑤⑥|
63
口口口③ |①---|
②口①口 |②---|
口口口口 |③---|
口④口口 |④---|
64
④①①口 |①---|
口③口口 |②---|
口口②口 |③---|
口口口口 |④---|
65
口口①① |①---|
口口口口 |----|
口口口口
口口口口

②③④口
口口口口
口口口口 |----|
口口口口 |---②③④|
66
口口口① |①---|
口口口口 |----|
口口口口 |----|
口口口口 |----|
67
口口口口 |----|
口口口口 |----|
口口口口 |----|
口口口口 |----|
68
口口口口 |①②③-|
口口①口 |④-⑤-|
口②口口
④口③⑤

⑧⑩⑭⑨
⑥⑪⑮⑦
口⑫⑯口 |⑥⑦⑧⑨|
口⑬⑰口 |⑩⑪⑫⑬⑭⑮⑯⑰|
69
口口口口 |①---|
口口口② |--②-|
①④④② |--③-|
①③口③ |--④-|
70
①①口口 |----|
①口口口 |--①-|
口口口口 |--②-|
②口口口 |----|
71
口口口口 |①---|
②口口口 |--②-|
②④④① |--③-|
③口③① |--④-|
72
口口①① |----|
口口口① |--①-|
口口口口 |--②-|
口口口② |----|
73
口口口口 |①---|
口口口② |--②-|
①④④② |--③-|
①③口③ |--④-|
74
①①口口 |----|
①口口口 |--①-|
口口口口 |--②-|
②口口口 |----|
75
口③③口 |①--②|
③口口③ |--③-|
口①①口
口口②口

⑥口口⑥
口⑥⑥口
口口口④ |④-⑤-|
口⑤⑦口 |⑥--⑦|
76
口口③口 |--①-|
②口口③ |②-③-|
口①①口
①口口①

⑧口口⑦
口口口口
⑥口⑨⑤ |--④⑤|
口④口口 |⑥⑦⑧⑨|
77
口①⑤口 |①-②③|
口口②④ |④-⑤-|
口口口口
口口③口

⑨口口口
⑧⑥⑩口
口口口口 |⑥⑦⑧-|
口⑦⑪口 |⑨-⑩⑪|
78
口③④② |①-②-|
口⑬⑭① |③④⑤⑥|
⑦⑤⑥⑧ |⑦⑧⑨⑩|
⑨⑪⑫⑩ |⑪⑫⑬⑭|
79
口口②④ |①-②③|
①口口⑤ |④-⑤-|
口口③口
口口口口

⑧⑥口口
⑨口口口
口⑦口口 |⑥⑦⑧-|
⑪口口⑩ |⑨-⑩⑪|
80
口⑥⑤口 |①②③④|
口④③口 |⑤⑥⑦⑧|
②口口①
口⑧⑦口

⑯口口⑮
口口口口
⑭⑩⑨⑬ |⑨⑩⑪⑫|
⑫口口⑪ |⑬⑭⑮⑯|
81
口⑤①口 |①-②③|
④②口口 |④-⑤-|
口口口口
口③口口

口口口⑨
口⑩⑥⑧
口口口口 |⑥⑦⑧-|
口⑪⑦口 |⑨-⑩⑪|
82
②④③口 |①-②-|
①口口口 |③④⑤⑥|
口⑥⑤口
口口口口

⑭口口⑬
口口口口
⑩口口⑨ |⑦⑧⑨⑩|
⑧⑫⑪⑦ |⑪⑫⑬⑭|
83
口口⑤口 |①②③④|
④③②① |⑤-⑥⑦|
口⑦口口
⑥口口口

⑭⑩口⑪
口⑬⑫口
口口⑧口 |⑧⑨⑩-|
口口口⑨ |⑪⑫⑬⑭|
84
口⑦口口 |①-②③|
②口口⑤ |④⑤⑥⑦|
⑥③④口
口口①口

口口⑧口
口⑨⑩口
口口口口 |⑧-⑨-|
口⑨⑩口 |--⑩-|

不確定度: 1

最終更新:2017年08月20日 14:44