Macuilxochitl
TOMOSUKE

BASIC

Level: 7
BPM: 148
Notes: 396

1
口口口口 |----|
口口口口 |----|
口口口口 |----|
口口口口 |----|
2
口口口口 |①②-③|
口①②口 |--④-|
③⑤口④ |-⑤--|
⑤口口口 |----|
3
口④⑤口 |-①--|
③口口③ |----|
口口①口 |②--③|
口②②① |-④⑤-|
4
口口口口 |---①|
口口口口 |--②-|
口③口口 |--③-|
③①②口 |----|
5
口④⑤口 |-①--|
③口口③ |----|
口口①口 |②--③|
口②②① |-④⑤-|
6
②口口③ |①---|
口口口口 |②-③-|
口①①口
①口口①

口口口口
口④⑤口
口⑥⑦口 |④-⑤-|
口口口口 |⑥-⑦-|
7
口②③口 |①---|
④口口⑤ |②-③-|
①口口① |④-⑤-|
⑥①①⑦ |⑥-⑦-|
8
口③③口 |①②--|
口口口口 |③---|
④②②④ |----|
口①①口 |④---|
9
②口口② |①---|
①口口① |②---|
口口口口
口口口口

口口口口
⑤口口⑤
④口口④ |-③-④|
③口口③ |-⑤--|
10
口②②口 |①-②-|
口①①口 |---③|
口⑤⑥口 |--④-|
③口口④ |⑤--⑥|
11
口口口口 |---①|
口①①口 |----|
口口口口 |-②③-|
口②③口 |----|
12
口口口口 |----|
口①②口 |----|
①口口② |----|
口口口口 |①②--|
13
①口口② |---①|
口③口口 |-②-③|
口口口口
口口口口
14
口口口口 |①--②|
口口①口 |--③④|
②口⑦口 |---⑤|
⑥③④⑤ |-⑥-⑦|
15
②口口③ |①---|
④口口⑤ |②-③-|
⑥①口⑦ |④-⑤-|
口口口口 |⑥-⑦-|
16
口③④口 |①-②-|
口⑤⑥口 |③-④-|
口⑦⑧口 |⑤-⑥-|
①口口② |⑦-⑧-|
17
⑧口口③ |①-②③|
④口⑦口 |-④-⑤|
口口口⑤ |-⑥-⑦|
⑥①②⑨ |-⑧-⑨|
18
口⑥⑥口 |-①-②|
口⑤⑤② |-③-④|
③①口口 |-⑤--|
口口④口 |-⑥--|
19
口⑤⑤口 |---①|
口④④③ |-②-③|
②口口口 |-④--|
口口口① |-⑤--|
20
口口口⑥ |①-②-|
⑦口口⑤ |--③-|
①②口④ |④-⑤-|
口口口③ |⑥-⑦-|
21
口口口口 |--①-|
③口①口 |②---|
口②口口 |--③-|
口④口口 |-④--|
22
③口口④ |①---|
⑤②②口 |②---|
口口口口 |---③|
口口①口 |-④-⑤|
23
口口口口 |-①-②|
口口口① |-③-④|
口②③口
口④口口

口⑥⑦口
⑧口口⑧
口口口口 |-⑤-⑥|
口口⑤口 |⑦-⑧-|
24
③口口④ |①②-③|
口⑤⑤口 |-④-⑤|
口①②口 |--⑥-|
口⑥⑥口 |----|
25
①⑤⑤② |-①-②|
口口口口 |-③-④|
口④④口 |--⑤-|
口③③口 |----|
26
口口口口 |①---|
口口口口 |②---|
①②③口 |③---|
口口口口 |----|
27
口口口口 |①---|
口③②① |②---|
口口口口 |③---|
口口口口 |----|
28
①②③口 |①---|
口口口口 |②---|
口口口口 |③---|
口口口口 |----|
29
口口口口 |①---|
④口口④ |②---|
口口口口 |③---|
口③②① |④---|
30
①②③④ |①---|
口口口口 |②---|
口口口口 |③---|
口口口口 |④---|
31
口口口口 |①---|
口口①口 |②---|
口②口口 |③---|
③④口口 |④---|
32
口口口口 |①---|
口③口口 |②---|
口口④口 |③---|
口口①② |④---|
33
口口口口 |①---|
③口口③ |----|
②口口② |②--③|
口①①口 |----|
34
④口口④ |①②-③|
口①①口 |-④--|
口②②口
③口口③
35
口口口口 |①---|
①口口② |②---|
口口口口 |③---|
口③④口 |④---|
36
①口口口 |①---|
②①口口 |②---|
③②口口 |③---|
④③口口 |④---|
37
口口口口 |①---|
①口口② |②---|
口口口口 |③---|
口③④口 |④---|
38
口①口口 |-①②③|
口②口口 |----|
口③口口 |----|
口口口口 |----|
39
口口口口 |①---|
①口口② |②---|
口口口口 |③--④|
口③④口 |----|
40
口口①口 |-①②③|
口口②口 |----|
口口③口 |----|
口④④口 |④---|
41
②口③② |①-②-|
口口口③ |③---|
口口口口
①口口①

口口口口
口口④口
口口⑤④ |④---|
口口口⑤ |⑤---|
42
③②②口 |①-②-|
口③口口 |③---|
口口口口
口①①口

口口口口
④口口口
⑤④口口 |④---|
口⑤口口 |⑤---|
43
②③口② |①-②-|
③口口口 |③---|
口口口口
①口口①

口口口口
口④口口
④⑤口口 |④---|
⑤口口口 |⑤---|
44
口②②③ |①-②-|
口口③口 |③---|
口口口口
口①①口

口口口口
口口口④
口口④⑤ |④---|
口口⑤口 |⑤---|
45
①口口② |①--②|
口⑤⑥口 |--③-|
口口口口 |-④--|
③口口④ |⑤⑥--|
46
①口口② |①--②|
口口口口 |--③-|
口口口口 |-④--|
③口口④
47
口口口口 |-①--|
口①①口 |--②-|
口口口口
口②②口
48
口口口口 |----|
口②②口 |----|
口①①口 |①---|
口口口口 |②---|
49
口①①口 |①---|
②口口② |----|
口口口口 |②---|
口口口口 |----|
50
口口口口 |①---|
口口口口 |----|
口口口口
口①①口

②口口②
口口口口
口口口口 |②---|
口③③口 |③---|
51
②口口② |①---|
③①①口 |----|
口④⑤口 |②-③-|
口口口口 |④-⑤-|
52
口口口口 |①---|
口口口① |----|
口③③口 |②---|
口②②口 |③---|
53
②口口② |①---|
口①①口 |----|
口口口口 |②---|
口口口口 |----|
54
口②②口 |①---|
口口口口 |----|
口口口口 |②---|
③①①③ |③---|
55
①口口① |①---|
口②②口 |----|
口口口口 |②---|
口口口口 |----|
56
⑤口口⑤ |①--②|
口④④口 |-③-④|
口③③口 |--⑤-|
①②②① |----|
57
口②②口 |①---|
口口口口 |----|
口口口口 |②---|
口①①口 |----|
58
⑤口口⑤ |①--②|
口④④口 |-③-④|
口③③口 |--⑤-|
①②②① |----|
59
口②②口 |①---|
口口口口 |----|
口口口口 |②---|
口①①口 |----|
60
⑤口口⑤ |①--②|
口④④口 |-③-④|
口③③口 |--⑤-|
①②②① |----|
61
口②②口 |-①--|
口口口口 |----|
口口口口 |②---|
口①①口 |----|
62
⑤口口⑤ |①--②|
口④④口 |-③-④|
口③③口 |--⑤-|
①②②① |----|
63
口②②口 |①---|
口口口口 |----|
口口口口 |②---|
口①①口 |----|
64
②口口② |①-②-|
口口口口 |----|
口口口口 |----|
①口口① |----|
65
口口口口 |①---|
口①①口 |----|
口①①口 |----|
口口口口 |----|


不確定度: 0

最終更新:2013年03月29日 20:35