Baby Bleep March
seiya-murai

EXTREME

Level: 9
BPM: 180
Notes: 677

1
口口口口 |----|
口口口口 |----|
口口口口 |----|
口口口口 |----|
2
⑥⑥①① |①---|
口口④⑤ |②-③-④-|
②③口口 |⑤---|
口口口口 |⑥---|
3
口口口口 |①---|
口⑧口口 |②-③-④-|
⑤④⑦⑥ |⑤---|
①①③② |⑥-⑦-⑧-|
4
口④⑤口 |①---|
①口⑧口 |②-③-④-|
口⑦口口 |⑤---|
②口⑥③ |⑥-⑦-⑧-|
5
①口口① |①---|
①口口① |----|
口口口口 |----|
口口口口 |----|
6
口口口口 |----|
⑧⑦⑥⑤ |----|
④③②① |①②③④|
口口口口 |⑤⑥⑦⑧|
7
①口⑤③ |①---|
口口口口 |②---|
口口口口 |③---|
④④②② |④-⑤-|
8
④③口口 |①-②-|
⑤②①口 |③-④-|
⑥⑦⑧口 |⑤-⑥-|
口口口口 |⑦-⑧-|
9
③⑤口口 |①---|
口口口口 |②---|
口口口① |③---|
②②④④ |④-⑤-|
10
口口②④ |①-②-|
口①③⑤ |③-④-|
口⑧⑦⑥ |⑤-⑥-|
口口口口 |⑦-⑧-|
11
⑦⑧口口 |①-②-|
④③口口 |③-④-|
口口⑥⑤ |⑤-⑥-|
口口②① |⑦-⑧-|
12
口口②① |①-②-|
③⑤口④ |③-④-|
口⑤口⑥ |⑤---|
口口口⑥ |⑥---|
13
①②③④ |①--②|
⑤⑥口口 |③-④-|
口口⑦⑧ |⑤-⑥-|
口口口口 |⑦-⑧-|
14
口口⑨⑧ |①-②③|
⑥⑦⑪⑩ |④⑤⑥-|
④⑤口⑫ |⑦-⑧⑨|
②③口① |⑩⑪⑫-|
15
①口⑤③ |①---|
口口口口 |②---|
④④口口 |③---|
口口②② |④-⑤-|
16
④③口口 |①-②-|
⑤②①口 |③-④-|
⑥⑦⑧口 |⑤-⑥-|
口口口口 |⑦-⑧-|
17
口⑤口口 |①---|
口口口口 |②---|
③口口① |③---|
②②④④ |④-⑤-|
18
口口①② |①-②-|
口口口③ |③-④-|
⑦⑥⑤④ |⑤-⑥-|
⑧口口口 |⑦-⑧-|
19
⑦⑤⑥⑧ |①-②-|
④③口口 |③-④-|
口口口口 |⑤-⑥-|
口口②① |⑦-⑧-|
20
口口口口 |①-②-|
口④②① |③-④-|
③口⑤⑥ |⑤---|
口口⑥⑥ |⑥---|
21
①②口口 |①--②|
⑤⑥③④ |③-④-|
口口⑧⑦ |⑤-⑥-|
口口口口 |⑦-⑧-|
22
口口口口 |①-②③|
口口口口 |④-⑤-|
⑤①口口
②③④口

⑥口口⑥
口⑥⑥口
口口口口 |⑥---|
⑧口口⑦ |⑦--⑧|
23
⑤口口⑥ |①---|
④口口③ |②--③|
②口口① |④---|
口口口口 |⑤--⑥|
24
口①口口 |①-②-|
⑧②口口 |③-④-|
⑥⑧③⑦ |⑤-⑥-|
④⑥⑦⑤ |⑦-⑧-|
25
②⑦③④ |①-②-|
口⑥⑤① |③-④-|
口口口口 |⑤-⑥-|
口⑧⑨口 |⑦-⑧⑨|
26
口口口口 |①-②-|
口口口口 |③-④-|
④口口③
②口口①

口口口⑦
⑥口⑦⑤
口口口口 |⑤-⑥-|
⑧口口口 |⑦--⑧|
27
⑥口口口 |①---|
④口口⑤ |②--③|
②口口③ |④---|
口口口① |⑤--⑥|
28
口③③⑥ |①-②-|
⑧②②⑦ |③-④-|
⑥①①⑧ |⑤-⑥-|
④口口⑤ |⑦-⑧-|
29
②口口⑤ |①-②-|
口口⑥⑦ |③-④-|
口口①口 |⑤-⑥-|
④⑧③口 |⑦-⑧-|
30
③②①口 |①②③④|
④⑨⑧口 |⑤⑥⑦⑧|
⑤⑥⑦口 |⑨---|
⑩口口口 |⑩---|
31
口口口口 |①---|
口口口② |--②③|
口口⑤③ |④---|
口①口④ |⑤---|
32
②口口口 |①---|
③口口口 |--②③|
④①口口 |④---|
口⑤⑤口 |⑤---|
33
⑧口口⑦ |①-②-|
⑥口口⑤ |③-④-|
④口口③ |⑤-⑥-|
②口口① |⑦-⑧-|
34
口口口⑦ |①-②-|
口口⑥口 |③-④-|
⑤④③口 |⑤-⑥-|
口②①口 |⑦---|
35
口①③④ |--①-|
①②④③ |--②-|
口口口口 |③---|
口口口口 |④---|
36
口口口口 |①---|
①口口口 |②---|
①②③口 |③---|
①②③④ |④---|
37
④口①② |--①-|
口④②① |--②-|
口口口口 |③---|
③③口口 |④---|
38
口⑩⑨口 |①--②|
④⑧⑦口 |③-④-|
②③⑥① |⑤-⑥-|
口口⑤① |⑦⑧⑨⑩|
39
口口口① |--①-|
口口口① |--②-|
口口口口 |③---|
④③②② |④---|
40
③③③③ |①---|
②②②口 |②---|
①①口⑤ |③---|
口口④口 |④-⑤-|
41
⑥⑥⑥⑥ |①--②|
④③②① |③-④-|
口⑤⑤口 |⑤---|
口口口口 |⑥---|
42
口口口口 |①---|
④②③⑤ |----|
①口口① |②-③-|
①①①① |④-⑤-|
43
①③④② |①-②-|
口口口口 |③-④-|
口口口口 |⑤-⑥-|
⑦⑤⑥⑧ |⑦-⑧-|
44
③④⑤② |①-②-|
④口口⑤ |③---|
①③②口 |④-⑤-|
口⑥⑥口 |--⑥-|
45
口口口① |①-②-|
口⑧口口 |③-④-|
④⑥⑦⑤ |⑤-⑥-|
②口口③ |⑦-⑧-|
46
口④⑤口 |①-②-|
②口①③ |③---|
④⑥⑥⑤ |④-⑤-|
口②③口 |--⑥-|
47
口口口① |①---|
口口①口 |②--③|
口口口⑤ |④---|
②③④⑤ |⑤---|
48
④⑤①口 |①-②-|
⑥②口① |③---|
③口②口 |--④-|
口③口口 |⑤-⑥-|
49
口口⑦⑧ |①-②-|
⑧⑤⑤⑥ |③-④-|
⑨口③④ |⑤-⑥-|
口口①② |⑦-⑧⑨|
50
口口口口 |①---|
口口口口 |----|
口口口口 |----|
①②②口 |②---|
51
②①口口 |①---|
①②③④ |②---|
口③④口 |③---|
口口口口 |④---|
52
③③口④ |①-②-|
③口⑤口 |③---|
①⑥口② |--④-|
口①②口 |⑤-⑥-|
53
⑤口口⑥ |①-②-|
③口口④ |③-④-|
①⑦⑧口 |⑤-⑥-|
①①口② |⑦-⑧-|
54
⑥③③⑥ |①-②-③-|
⑦⑤⑤⑦ |--④-⑤-|
②⑦⑦② |⑥---|
④①①④ |⑦---|
55
口①①口 |--①-|
口④④④ |--②-|
口口口③ |③---|
口口口② |④---|
56
①①①① |①---|
②口口口 |②---|
②③口口 |③---|
②③④口 |④---|
57
口口①① |--①-|
口口④④ |--②-|
口③口④ |③---|
②③口口 |④---|
58
①①④⑩ |①--②|
②③⑨口 |③-④-|
口口口⑧ |⑤-⑥-|
⑤⑥⑦口 |⑦⑧⑨⑩|
59
口①口口 |--①-|
①口口口 |--②-|
口③④口 |③---|
②③④口 |④---|
60
③③③③ |①---|
②②口① |②---|
口⑤口① |③---|
口口④① |④-⑤-|
61
口⑥⑥口 |①--②|
②③①④ |③-④-|
口口口口 |⑤---|
⑤⑤口口 |⑥---|
62
①口口① |①-②-|
②口口③ |③-④-|
④①①⑤ |⑤-⑥-|
⑥⑧口⑦ |⑦-⑧-|
63
口口口① |--①-|
④④①口 |--②-|
③口口② |③---|
口口口口 |④---|
64
①①①② |①---|
口口③③ |②---|
口④④④ |③---|
口口口口 |④---|
65
口①口口 |--①-|
①口口④ |--②-|
③口口口 |③---|
②③④口 |④---|
66
④③②① |①--②|
口口⑩口 |③-④-|
⑥口⑧⑨ |⑤-⑥-|
⑤⑥口⑦ |⑦⑧⑨⑩|
67
口①①口 |--①-|
④口口口 |--②-|
③④口口 |③---|
②③④口 |④---|
68
①②口③ |①---|
口①②口 |②---|
口⑤①② |③---|
③④口① |④-⑤-|
69
①口①口 |①--②|
④①口口 |③-④-|
①口①②
口口口③

口口口口
口口口口
口口⑦口 |⑤---|
⑤口⑥口 |⑥-⑦-|
70
口①口① |①--②|
②口①③ |③-④-|
口①口①
④口口口

口口口口
口口口口
口⑦⑦口 |⑤---|
口⑥⑥⑤ |⑥-⑦-|
71
①④④① |①--②|
⑥①①⑥ |--③-|
①口口① |④---|
②⑤⑤③ |⑤-⑥-|
72
①⑥⑥① |①-②-|
⑧⑤⑤⑧ |③-④-|
④②②④ |⑤-⑥-|
③⑦⑦③ |⑦-⑧-|
73
②口口② |①-②-|
口⑥⑥口 |③---|
③①①⑤ |④-⑤-|
③口口④ |--⑥-|
74
②①①② |①-②-|
④⑦⑦④ |③-④-|
⑥⑤⑤⑥ |⑤-⑥-|
⑧③③⑧ |⑦-⑧-|
75
①③③② |①-②-|
口口口口 |③---|
④⑥⑥⑤ |④-⑤-|
口④⑤口 |--⑥-|
76
口口口口 |①---|
口口口口 |----|
口口口口
①口口①

口②口②
③口②④
口口口② |②---|
⑤口口⑥ |③④⑤⑥|
77
①口口口 |①---|
口①口口 |----|
口①口口 |----|
口口口口 |----|


不确定度: 0

タグ:

+ タグ編集
  • タグ:

このサイトはreCAPTCHAによって保護されており、Googleの プライバシーポリシー利用規約 が適用されます。

最終更新:2012年11月27日 22:04