Welcome!!
kors k

EXTREME

Level: 9
BPM: 180
Notes: 810

1
口口口口 |----|
口口口口 |----|
口口口口 |----|
口口口口 |----|
2
口口口口 |①---|

口口口口
口口口口

口口口口
口口口 |---②|
|③---|
口口口口

口口口口
口④口口
口口口
口④口口 |④--⑤|
3
④口口⑤ |①-②③|
|④-⑤-|
①口③口 |⑥-|
口口②口

口口口口
口口口
口口口口 |-⑦|
口口口口

口口口口

口口口口
口口口口 |⑧-|

口口口口
口口口
口口口口
口口口口 |-⑨|
4
口口口口 |①---|
口口口口

口口口口

口口口口
口口口口 |---②|
口口口 |③---|


口口④口
口口口口
口口④口
口口口 |④--⑤|
5
⑤①口口 |①---|
①③①④ |②---|
③②④② |③-④-|
③口②口 |⑤---|
6
口口①① |①---|
|②---|
口口口口 |③---|
口口②②

口④口口
口口口
口④口口
口口口口 |④--⑤|
7
④口口⑤ |①-②③|
|④-⑤-|
口口③口 |⑥-|
①口②口


口口口
|-⑦|
口口口口 |⑧-|

口口
口口口口
口口
口口口口 |⑨-|
8
口口口口 |①---|
口口口口
口口口口


口口口口
|---②|
口口口口 |③---|
口口口

口④口口
口口口
口④口口
口口口口 |④--⑤|
9
⑨⑩④⑪ |①②③④|
⑨③⑧⑪ |⑤⑥⑦⑧|
①口口⑥ |⑨⑩--|
⑤⑦②口 |⑪---|
10
⑤口口口 |①--②|
口①口⑥ |--③④|
⑦口④口 |⑤-⑥-|
②口③⑧ |⑦-⑧-|
11
⑨⑥②口 |①--②|
口⑦⑧口 |--③④|
口④口① |⑤-⑥⑦|
口③⑤口 |⑧-⑨-|
12
口⑥口口 |①-②-|
⑨口⑩⑤ |③-④⑤|
③口⑧④ |⑥-⑦⑧|
①口⑦② |⑨-⑩-|
13
④口⑧口 |①--②|
口②口⑥ |--③-|
⑦口口⑤ |④-⑤⑥|
①口口③ |⑦-⑧-|
14
⑤口口口 |①--②|
口①口⑥ |--③④|
⑦口④口 |⑤-⑥-|
②口③⑧ |⑦-⑧-|
15
⑨⑥②口 |①--②|
口⑦⑧口 |--③④|
口④口① |⑤-⑥⑦|
口③⑤口 |⑧-⑨-|
16
口⑥口口 |①-②-|
⑨口⑩⑤ |③-④⑤|
③口⑧④ |⑥-⑦⑧|
①口⑦② |⑨-⑩-|
17
口口⑦② |①-②-|
口口口④ |③-④-|
口口⑦③ |⑤⑥--|
①口⑥⑤ |⑦---|
18
②②口口 |①--②|
④④口⑥ |--③-|
①①⑤口 |-④--|
③③口口 |⑤-⑥-|
19
②②口口 |①--②|
④④口⑥ |--③-|
①①⑤口 |-④--|
③③口口 |⑤-⑥-|
20
①①口⑤ |①--②|
③③⑥口 |--③-|
②②⑦口 |-④--|
④④口口 |⑤⑥⑦-|
21
②②口口 |①--②|
④④⑤口 |--③-|
①①口⑥ |-④--|
③③口口 |⑤-⑥-|
22
口②②口 |①--②|
口口④⑤ |--③-|
⑦①①⑦ |-④⑤-|
⑥③③⑥ |⑥-⑦-|
23
口②②口 |①--②|
口口口口 |--③-|
口①①口
口③③口

口口口口
口④④口
⑤⑥⑦⑧ |-④--|
口口口口 |⑤⑥⑦⑧|
24
②④④② |①--②|
口口⑥⑦ |--③-|
口⑤⑤口 |-④--|
①③③① |⑤-⑥⑦|
25
①④④① |①--②|
⑤口口⑤ |--③-|
⑤口口⑤ |-④--|
②③③② |⑤---|
26
口口口口 |①-|

口口口口
口口口口

口口口口 |-②|
口口 |③-|

口口口口


口口口⑥ |-④|
口口 |⑤-⑥-|
口口口⑤ |⑦-|

口口
口口口口
口口口口
口口口口 |-⑧|
27
⑧口口⑩ |①-②-|
①②⑨⑦ |③-④-|
口⑥④③ |⑤⑥⑦-|
口⑤口口 |⑧-⑨⑩|
28
口口口口 |①-|
口口
口口口口
口口口口

口口口口 |-②|
口口口 |③-|

口口口口

口⑧口口
口口⑦口 |-④|
⑥口口 |⑤-⑥-|
口口⑤口 |⑦-⑧-|
29
⑤口③口 |--①-|
①口口口 |②-③-|
口口⑥④ |④-⑤-|
口②口口 |⑥---|
30
口口口口 |①-|

口口口口
口口口口

口口口口 |-②|
口口 |③-|

口口口口


口口口⑥ |-④|
口口 |⑤-⑥-|
口口口⑤ |⑦-|

口口
口口口口
口口口口
口口口口 |-⑧|
31
⑧口口⑩ |①-②-|
①②⑨⑦ |③-④-|
口⑥④③ |⑤⑥⑦-|
口⑤口口 |⑧-⑨⑩|
32
口口口口 |①-|
口口
口口口口
口口口口

口口口口 |-②|
口口口 |③-|

口口口口

口口口口
口口口口 |-④|
口口口 |⑤-|



口口口口
口口口口 |-⑥|
口口口 |⑦-|

口口口
口口口口
口口口口
口口口口 |-⑧|
33
⑦⑤⑤② |①-②-|
④口口口 |③-④-|
⑤口①⑤ |⑤---|
⑥③口口 |⑥-⑦-|
34
口口口口 |①-|

口口口口
口口口口

口口口口 |-②|
口口 |③-|

口口口口


口口口⑥ |-④|
口口 |⑤-⑥-|
口口口⑤ |⑦-|

口口
口口口口
口口口口
口口口口 |-⑧|
35
⑧口口⑩ |①-②-|
①②⑨⑦ |③-④-|
口⑥④③ |⑤⑥⑦-|
口⑤口口 |⑧-⑨⑩|
36
口口口口 |①-|
口口
口口口口
口口口口

口口口口 |-②|
口口口 |③-|

口口口口

口⑧口口
口口⑦口 |-④|
⑥口口 |⑤-⑥-|
口口⑤口 |⑦-⑧-|
37
⑤口③口 |--①-|
①口口口 |②-③-|
口口⑥④ |④-⑤-|
口②口口 |⑥---|
38
口口口口 |①-|

口口口口
口口口口

口口口口 |-②|
口口 |③-|

口口口口


口口口⑥ |-④|
口口 |⑤-⑥-|
口口口⑤ |⑦-|

口口
口口口口
口口口口
口口口口 |-⑧|
39
⑧口口⑩ |①-②-|
①②⑨⑦ |③-④-|
口⑥④③ |⑤⑥⑦-|
口⑤口口 |⑧-⑨⑩|
40
口口口口 |①-|
口口
口口口口
口口口口

口口口口 |-②|
口口口 |③-|

口口口口

口口口口
口口口口 |-④|
口口口 |⑤-|



口口口口
口口口口 |-⑥|
口口口 |⑦-|

口口口
口口口口
口口口口
口口口口 |-⑧|
41
口口③④ |①②③④|
②①口口 |⑤⑥⑦⑧|
⑥⑤口口
口口⑦⑧

口⑬口口
⑭口⑪⑫
口口口口 |⑨⑩⑪⑫|
⑩⑨口口 |⑬-⑭-|
42
①口①⑤ |①-②-|
口口口④ |--③-|
②口③③ |④-⑤-|
口口⑦⑥ |⑥-⑦-|
43
⑤①口口 |①-②-|
⑤①②⑥ |③-④-|
⑦③④⑧ |⑤-⑥-|
⑦口口口 |⑦-⑧-|
44
口①①② |①-②-|
口③③⑤ |③-④-|
口⑦⑧⑦ |⑤-⑥-|
口⑤⑥④ |⑦-⑧-|
45
①口②② |①-②-|
③口④④ |③-④-|
⑦口⑧⑧ |⑤-⑥-|
⑤口⑥⑥ |⑦-⑧-|
46
①①②③ |①-②-|
口口口③ |--③-|
⑤口⑥口 |--④-|
⑤口口④ |⑤-⑥-|
47
口③④口 |①-②-|
①①②口 |③-④-|
⑦⑤口⑥ |⑤-⑥-|
⑦⑤口⑧ |⑦-⑧-|
48
①⑤⑥③ |①-②-|
①⑦⑧② |③-④-|
口⑤口口 |⑤-⑥-|
口⑦④口 |⑦-⑧-|
49
口口⑤⑥ |①-②-|
口口⑦⑧ |③-④-|
口口①② |⑤-⑥-|
口口③④ |⑦-⑧-|
50
口②口⑦ |①-②-|
①①口口 |--③-|
④口③⑤ |④-⑤-|
口口③⑥ |⑥-⑦-|
51
①①②口 |①-②-|
口③④口 |③-④-|
⑤⑤⑥口 |⑤-⑥-|
⑦⑦⑧口 |⑦-⑧-|
52
①①③② |①-②-|
⑦⑦⑧口 |③-④-|
⑤⑤⑥④ |⑤-⑥-|
口口口口 |⑦-⑧-|
53
口口③④ |①-②-|
口口⑦⑧ |③-④-|
口口⑤⑥ |⑤-⑥-|
口口①② |⑦-⑧-|
54
口②④口 |①-②-|
①①口口 |--③-|
⑤⑤⑥口 |--④-|
口口③③ |⑤-⑥-|
55
①①口② |①-②-|
③口口④ |③-④-|
⑦⑦口⑥ |⑤-⑥-|
⑤⑤口⑧ |⑦-⑧-|
56
①①②③ |①-②-|
⑤⑤⑥口 |③-④-|
口口④口 |⑤-⑥-|
⑦⑦⑧⑧ |⑦-⑧-|
57
口口口③ |①-②-|
口④④口 |--③-|
①①口② |④---|
口⑤⑤口 |⑤---|
58
口口 |①---|
口口 |----|
口口 |----|
口口 |----|
59
口口口口 |----|
口口口口 |----|
口口口口 |----|
口口口口 |----|
60
口口口口 |----|
口口口口 |----|
口口口口 |----|
口口口口 |----|
61
口口口口 |----|
|--①-|
口口口口 |②---|
口口 |----|
62
口口口口 |①---|
口口口口 |----|
|----|
口口口口 |----|
63
口口口口 |----|
口口口口 |----|
口口口口 |----|
口口口口 |----|
64
口口口口 |----|
口口口口 |----|
口口口口 |----|
口口口口 |----|
65
口 |①---|
口口口 |----|
口口口 |②---|
口口口口

口口口
口口口口
口口口口
口口口口 |③---|
66
口①口口 |①---|
①口①口 |②---|
口②口②
口口②口

口⑥口⑤
⑥③⑥④
③口④口 |③-④-|
③口口口 |⑤-⑥-|
67
②口②④ |--①-|
口口口口 |②---|
口①口① |③---|
口③①③ |④---|
68
口①口口 |①---|
①口①口 |②---|
口②口②
口口②口

口⑥口⑤
⑥③⑥④
③口④口 |③-④-|
③口口口 |⑤-⑥-|
69
②口②④ |--①-|
口口口口 |②---|
口①口① |③---|
口③①③ |④---|
70
口①口口 |①---|
①口①口 |②---|
口②口②
口口②口

口⑥口⑤
⑥③⑥④
③口④口 |③-④-|
③口口口 |⑤-⑥-|
71
②口②④ |--①-|
口口口口 |②---|
口①口① |③---|
口③①③ |④---|
72
口①口口 |①---|
①③①④ |②---|
③②④② |③-④-|
③口②口 |----|
73
③④口⑤ |--①-|
③口②⑤ |②---|
口口口口 |③④--|
口口①口 |⑤---|
74
⑥口口口 |①--②|
口①口⑦ |③-④⑤|
⑧①⑤口 |⑥-⑦-|
②③④⑨ |⑧-⑨-|
75
⑩⑦②③ |①--②|
口⑧⑨口 |③-④⑤|
口⑤口① |⑥-⑦⑧|
口④⑥口 |⑨-⑩-|
76
口⑥口口 |①-②-|
⑨口⑩⑤ |③-④⑤|
③口⑧④ |⑥-⑦⑧|
①口⑦② |⑨-⑩-|
77
⑤口⑨口 |①--②|
口②口⑦ |③-④-|
⑧③口⑥ |⑤-⑥⑦|
①口口④ |⑧-⑨-|
78
⑥口口口 |①--②|
口①口⑦ |③-④⑤|
⑧口⑤口 |⑥-⑦-|
②③④⑨ |⑧-⑨-|
79
⑩⑦②③ |①--②|
口⑧⑨口 |③-④⑤|
口⑤口① |⑥-⑦⑧|
口④⑥口 |⑨-⑩-|
80
口⑥口口 |①-②-|
⑨口⑩⑤ |③-④⑤|
③口⑧④ |⑥-⑦⑧|
①口⑦② |⑨-⑩-|
81
口口⑦② |①-②-|
口口口④ |③-④-|
口口⑦③ |⑤⑥--|
①口⑥⑤ |⑦---|
82
②②口③ |①--②|
⑥⑥⑤⑧ |③-④-|
①①⑦口 |⑤⑥--|
④④口口 |⑦-⑧-|
83
②②⑤③ |①--②|
⑥⑥口⑧ |③-④-|
①①⑦① |⑤⑥--|
④④口口 |⑦-⑧-|
84
①①⑤⑦ |①--②|
④④⑧口 |③-④-|
②②⑨③ |⑤⑥--|
⑥⑥口① |⑦⑧⑨-|
85
②②口⑦ |①--②|
⑥⑥⑦③ |③-④-|
①①口⑧ |⑤⑥--|
④④⑤① |⑦-⑧-|
86
口②②口 |①--②|
口口④⑤ |--③-|
⑦①①⑦ |-④⑤-|
⑥③③⑥ |⑥-⑦-|
87
口②②③ |①--②|
口口口口 |③-④-|
口①①口
口④④口

口口口口
口⑥⑥⑤
⑦⑧⑨⑩ |⑤⑥--|
口口口口 |⑦⑧⑨⑩|
88
②⑥⑥② |①--②|
③⑤⑧⑨ |③-④-|
口⑦⑦口 |⑤⑥--|
①④④① |⑦-⑧⑨|
89
口口 |①---|
口口 |----|
口口
口口

口口
口③③口
口③③口 |--②-|
口口口口 |③---|
90
口口口口 |①---|
①口口① |----|
①口口① |----|
口口口口 |----|

不確定度: 1

最終更新:2017年08月20日 01:21