みたらしプラトニック (feat. nicamoq)
Yunomi

BASIC

Level: 3
BPM: 160
Notes: 216

1
口口口口 |----|
口口口口 |----|
口口口口 |----|
口口口口 |----|
2
口口口口 |①---|
口②口口 |----|
口①口口 |②---|
口口口口 |----|
3
口口口口 |①---|
口口②口 |----|
口口①口 |②---|
口口口口 |----|
4
口口口口 |①---|
口②口口 |----|
口①口口 |②---|
口口口口 |----|
5
口口口口 |①---|
口口①口 |----|
口口②口 |②---|
口口口口 |----|
6
口口口口 |①---|
口②口口 |----|
口①口口 |②---|
口口口口 |----|
7
口口口口 |①---|
口口②② |----|
口口①① |②---|
口口口口 |----|
8
口口口口 |①---|
口②口口 |----|
口①口口 |②---|
口口口口 |----|
9
口口口口 |①---|
口口①① |----|
口口②② |②---|
口口口口 |----|
10
口口口口 |①---|
口②口口 |----|
口①口口 |②---|
口口口口 |----|
11
口口口口 |①---|
口口②② |----|
口口①① |②---|
口口口口 |----|
12
口口口口 |①---|
口②口口 |----|
口①口口 |②---|
口口口口 |----|
13
口口口口 |①---|
口口①口 |②---|
口②口口 |③---|
口口③口 |----|
14
口口口口 |①---|
①口口② |----|
口口口口 |②---|
口口口口 |----|
15
口口口口 |①---|
口③④口 |②---|
口①②口 |③---|
口口口口 |④---|
16
①口口② |①---|
口口口口 |----|
口口口口 |②---|
口口口口 |----|
17
口口口口 |①---|
口①①口 |②---|
口②②口 |③---|
口③③口 |----|
18
口口口口 |①---|
①口口② |----|
口口口口 |②---|
口口口口 |----|
19
口口口口 |①---|
口③④口 |②---|
口①②口 |③---|
口口口口 |④---|
20
①口口② |①---|
口口口口 |----|
口口口口 |②---|
口口口口 |----|
21
口口口口 |①---|
口①①口 |②---|
②口口② |③---|
③口口③ |----|
22
口口口口 |①---|
①口口② |----|
口口口口 |②---|
口口口口 |----|
23
口口口口 |①---|
口③④口 |②---|
口①②口 |③---|
口口口口 |④---|
24
①口口② |①---|
口口口口 |----|
口口口口 |②---|
口口口口 |----|
25
口口口口 |①---|
口①①口 |②---|
口②②口 |③---|
口③③口 |----|
26
口口口口 |①---|
①口口② |----|
口口口口 |②---|
口口口口 |----|
27
口口口口 |①---|
口③④口 |②---|
口①②口 |③---|
口口口口 |④---|
28
①口口② |①---|
口口口口 |----|
口口口口 |②---|
口口口口 |----|
29
口口口口 |①---|
口①①口 |②---|
口②②口 |③---|
口③③口 |----|
30
①②口口 |①---|
口口口口 |----|
口口口口 |②---|
口口口口 |----|
31
口口①② |①---|
口口口口 |----|
口口口口 |②---|
口口口口 |----|
32
口①口口 |①---|
口口②口 |----|
口口口口 |②---|
口口口口 |----|
33
口口口口 |①---|
口口口口 |----|
口①口口 |②---|
口口②口 |----|
34
口口口口 |①---|
①①口口 |----|
口口口口 |----|
口口口口 |----|
35
口口口口 |①---|
口口①① |----|
口口口口 |----|
口口口口 |----|
36
口口口口 |①---|
口口口口 |----|
①②口口 |②---|
口口口口 |----|
37
口口口口 |①---|
口口口口 |----|
口口①② |②---|
口口口口 |----|
38
①①口口 |①---|
口口口口 |----|
口口口口 |----|
口口口口 |----|
39
口口①① |①---|
口口口口 |----|
口口口口 |----|
口口口口 |----|
40
口口口口 |①---|
口①②口 |----|
口口口口 |②---|
口口口口 |----|
41
口口口口 |①---|
口口口口 |----|
口②①口 |②---|
口口口口 |----|
42
口口口口 |①---|
①①口口 |----|
口口口口 |----|
口口口口 |----|
43
口口口口 |①---|
口口①① |----|
口口口口 |----|
口口口口 |----|
44
口口口口 |①---|
②口口口 |----|
口①口口 |②---|
口口口口 |----|
45
口口口口 |①---|
口口①口 |----|
口口口② |②---|
口口口口 |----|
46
口口口口 |①---|
①②③④ |②---|
口口口口 |③---|
口口口口 |④---|
47
口口口口 |①---|
口口口口 |②---|
④③②① |③---|
口口口口 |④---|
48
口口口口 |①---|
①②③④ |②---|
口口口口 |③---|
口口口口 |④---|
49
口口口口 |①---|
口口口口 |②---|
④③②① |③---|
口口口口 |④---|
50
①①口口 |①---|
口口口口 |----|
口口口口 |----|
口口口口 |----|
51
口口①① |①---|
口口口口 |----|
口口口口 |----|
口口口口 |----|
52
口口口口 |①---|
①①口口 |----|
口口口口 |----|
口口口口 |----|
53
口②②口 |①---|
口口①① |----|
口口口口 |②---|
口口口口 |----|
54
口口口口 |①---|
①②③④ |②---|
口口口口 |③---|
口口口口 |④---|
55
口口口口 |①---|
口口口口 |----|
①口口② |②---|
口口口口 |----|
56
口口口口 |①---|
口口口口 |----|
口②②口 |②---|
口①①口 |----|
57
口②②口 |①---|
口①①口 |----|
口口口口 |②---|
口口口口 |----|
58
口口口口 |①---|
①②③④ |②---|
口口口口 |③---|
口口口口 |④---|
59
口口口口 |①---|
口口口口 |----|
①口口② |②---|
口口口口 |----|
60
口口口口 |①---|
口口口口 |----|
口②②口 |②---|
口①①口 |----|
61
口②②口 |①---|
口①①口 |----|
口口口口 |②---|
口口口口 |----|
62
口口口口 |①---|
①②③④ |②---|
口口口口 |③---|
口口口口 |④---|
63
口口口口 |①---|
口口口口 |----|
①口口② |②---|
口口口口 |----|
64
口①①口 |①---|
口②②口 |----|
口口口口 |②---|
口口口口 |----|
65
口口口口 |①---|
口口口口 |②---|
①②③口 |③---|
口口口口 |----|
66
口口口口 |①---|
口口口口 |②---|
①②③④ |③---|
口口口口 |④---|
67
口口口口 |①---|
①口口② |----|
口口口口 |②---|
口口口口 |----|
68
口口口口 |①---|
口①①口 |----|
口②②口 |②---|
口口口口 |----|
69
③口口③ |①---|
②口口② |②---|
①口口① |③---|
口口口口 |----|
70
口口口口 |①---|
①口口口 |----|
口口口口 |----|
口口口口 |----|
71
口口口口 |①---|
口口口① |----|
口口口口 |----|
口口口口 |----|
72
口口口口 |①---|
①口口口 |----|
口口口口 |----|
口口口口 |----|
73
口口口口 |①---|
口口口① |----|
口口口口 |----|
口口口口 |----|
74
口口口口 |①---|
①口口口 |----|
口口口口 |----|
口口口口 |----|
75
口口口口 |①---|
口口口① |----|
口口口口 |----|
口口口口 |----|
76
口口口口 |①---|
①口口② |----|
口口口口 |②---|
口口口口 |----|
77
口③③口 |①---|
口②②口 |②---|
口①①口 |③---|
口口口口 |----|

不確定度: 1

最終更新:2017年08月19日 17:27