みたらしプラトニック (feat. nicamoq)
Yunomi

ADVANCED

Level: 7
BPM: 160
Notes: 482

1
口口口口 |----|
口口口口 |----|
口口口口 |----|
口口口口 |----|
2
①①②② |①---|
口口口口 |----|
口口口口 |②---|
口口口口 |----|
3
口口口口 |①---|
④口口④ |②-③-|
③①①③ |④---|
②口口② |----|
4
①①②② |①---|
口口口口 |----|
口口口口 |②---|
口口口口 |----|
5
②口口② |①---|
③口口③ |②-③-|
④①①④ |④---|
口口口口 |----|
6
①①②② |①---|
口口口口 |----|
口口口口 |②---|
口口口口 |----|
7
口口口口 |①---|
①口口② |②---|
③④⑤⑥ |③-④-|
口口口口 |⑤-⑥-|
8
①①②② |①---|
口口口口 |----|
口口口口 |②---|
口口口口 |----|
9
口口口口 |①-②-|
①②③④ |③-④-|
⑧⑦⑥⑤ |⑤-⑥-|
口口口口 |⑦-⑧-|
10
①①②② |①---|
口口口口 |----|
口口口口 |②---|
口口口口 |----|
11
口①⑦口 |①-②-|
⑤口②⑧ |③-④-|
口⑥③口 |⑤-⑥-|
口口口④ |⑦-⑧-|
12
①①②② |①---|
口口口口 |----|
口口③口 |②---|
口口口口 |--③-|
13
口口口口 |①-②-|
①②③④ |③-④-|
口⑤口口 |⑤---|
口口口口 |----|
14
口口口口 |①---|
口②②口 |----|
口口口口 |②---|
口①①口 |----|
15
口口口口 |①-②-|
⑤⑥⑦⑧ |③-④-|
①②③④ |⑤-⑥-|
口口口口 |⑦-⑧-|
16
①①②② |①---|
口口口口 |----|
口口口口 |②---|
口口口口 |----|
17
口口口口 |①---|
口①①口 |②---|
口②②口 |③---|
口③③口 |----|
18
①①②② |①---|
口口口口 |----|
口口口口 |②---|
口口口口 |----|
19
口口口口 |①-②-|
①⑦③⑤ |③-④-|
⑧②⑥④ |⑤-⑥-|
口口口口 |⑦-⑧-|
20
①①②② |①---|
口口口口 |----|
口口口口 |②---|
口口口口 |----|
21
口口口⑤ |①-②-|
口③④口 |③-④-|
①②口口 |⑤---|
口口口口 |----|
22
①①②② |①---|
口口口口 |----|
口口口口 |②---|
口口口口 |----|
23
口口口口 |①-②-|
①③⑤⑦ |③-④-|
②④⑥⑧ |⑤-⑥-|
口口口口 |⑦-⑧-|
24
①①②② |①---|
口口口口 |----|
口口口口 |②---|
口口口口 |----|
25
口口口口 |①-②-|
口⑤口口 |③-④-|
①②③④ |⑤---|
口口口口 |----|
26
①①②② |①---|
口口口口 |----|
口口口口 |②---|
口口口口 |----|
27
口口口口 |①-②-|
⑥②⑧④ |③-④-|
①⑤③⑦ |⑤-⑥-|
口口口口 |⑦-⑧-|
28
①①②② |①---|
口口口口 |----|
口口口口 |②---|
口口口口 |----|
29
口①口口 |①-②-|
口②③口 |③-④-|
口口④口 |⑤---|
口⑤口口 |----|
30
①②口口 |①---|
②③④口 |②---|
口④口口 |③---|
口口口口 |④---|
31
口③口② |①---|
③口口口 |②---|
口口口① |③---|
②口①口 |----|
32
口口口口 |①---|
口①③口 |----|
①口②口 |②---|
口口口② |--③-|
33
①口口④ |①-②-|
③⑤口② |③-④-|
口口口口 |⑤---|
口口口口 |----|
34
口口口口 |①-②-|
⑤口口⑥ |③-④-|
①②③④ |⑤---|
⑤口口⑥ |⑥---|
35
口①①口 |①---|
④②②口 |②---|
口③③口 |③---|
口口口口 |--④-|
36
①口口③ |①---|
口口口② |--②-|
口④⑤口 |③---|
口口口口 |④-⑤-|
37
口②③口 |①-②-|
①⑤口④ |③-④-|
口口口口 |⑤---|
口口口口 |----|
38
口①③口 |①---|
②④②④ |②---|
口①③口 |③---|
口口口口 |④---|
39
⑥口口口 |①-②-|
口⑥②口 |③-④-|
口①⑤③ |⑤---|
口口④口 |--⑥-|
40
口口口② |①---|
①口②③ |--②-|
口①③口 |③---|
口④⑤口 |④-⑤-|
41
口⑤⑤口 |①-②-|
③口口④ |③-④-|
①口口② |⑤---|
口口口口 |----|
42
口口口口 |①---|
①①①口 |②-③-|
③口口③
口②②口

口④④口
⑤口口⑤
口口口口 |④---|
口口口口 |⑤---|
43
口口口口 |①---|
口①①口 |②---|
口②②口 |③---|
④③③④ |④---|
44
①③③① |①---|
口口口④ |--②-|
口②②⑤ |③---|
口口口口 |④-⑤-|
45
口④④口 |①-②-|
③口口⑤ |③-④-|
②口口口 |⑤---|
口①①口 |----|
46
口④口④ |①---|
③口③口 |②---|
口②口② |③---|
①口①口 |④---|
47
①口①口 |①---|
口②口② |②---|
③口③口 |③---|
口口口口 |----|
48
口①口① |①---|
②口②口 |②---|
口③口③ |③---|
④口④口 |④---|
49
口口口口 |①---|
口①口① |②---|
②口②口 |③---|
口③口③ |----|
50
①口①口 |①---|
②口②口 |②---|
③口③口 |③---|
④口④口 |④---|
51
口③口③ |①---|
②口②口 |②---|
口①口① |③---|
口口口口 |----|
52
④口口④ |①---|
③口口③ |②---|
②口口② |③---|
①口口① |④---|
53
口口口口 |①---|
②②②② |②---|
③③③③ |③---|
①①①① |----|
54
④③⑦⑧ |①-②-|
①②⑥⑤ |③-④-|
口口口口 |⑤-⑥-|
口口口口 |⑦-⑧-|
55
口口口口 |①-②-|
口口口口 |③-④-|
④③⑦⑧ |⑤-⑥-|
①②⑥⑤ |⑦-⑧-|
56
口①①口 |①---|
②口口③ |--②-|
口口口口 |③---|
④口口⑤ |④-⑤-|
57
口口口口 |①-②-|
口④③口 |③-④-|
①②⑤口 |⑤---|
口口口口 |----|
58
口口口口 |①-②-|
口口口口 |③-④-|
③②⑥⑦ |⑤-⑥-|
①④⑧⑤ |⑦-⑧-|
59
⑧②⑥④ |①-②-|
①⑦③⑤ |③-④-|
口口口口 |⑤-⑥-|
口口口口 |⑦-⑧-|
60
口②③口 |①---|
口口口口 |--②-|
④口口④ |③---|
口①①口 |④---|
61
①口口① |①---|
②②②② |②---|
口口口口 |③---|
③③③③ |----|
62
④③⑦⑧ |①-②-|
①②⑥⑤ |③-④-|
口口口口 |⑤-⑥-|
口口口口 |⑦-⑧-|
63
口口口口 |①-②-|
口口口口 |③-④-|
④③⑦⑧ |⑤-⑥-|
①②⑥⑤ |⑦-⑧-|
64
口①①口 |①---|
②口口③ |--②-|
口口口口 |③---|
④口口⑤ |④-⑤-|
65
⑤口④⑤ |①-②-|
口③口口 |③-④-|
口口②口 |⑤---|
口①口口 |----|
66
口口口口 |①-②-|
口口口口 |③-④-|
③②⑥⑦ |⑤-⑥-|
①④⑧⑤ |⑦-⑧-|
67
口②⑦口 |①-②-|
①⑥③⑧ |③-④-|
口⑤④口 |⑤-⑥-|
口口口口 |⑦-⑧-|
68
口口口口 |①---|
口②③口 |--②-|
口④口口 |③---|
①口口① |--④-|
69
口口口口 |①---|
③③③③ |②---|
口口①口 |③---|
②②②② |----|
70
①①②② |①---|
口口口口 |----|
口口口口 |②---|
口口口口 |----|
71
口口口口 |①---|
口口口口 |②---|
①②③④ |③---|
口口口口 |④---|
72
①①②② |①---|
口口口口 |----|
口口口口 |②---|
口口口口 |----|
73
口口口口 |①---|
④口②口 |②---|
口③口① |③---|
口口口口 |④---|
74
①①②② |①---|
口口口口 |----|
口口口口 |②---|
口口口口 |----|
75
口口口口 |①---|
口②口④ |②---|
①口③口 |③---|
口口口口 |④---|
76
①①②② |①---|
口口口口 |----|
口口口口 |②---|
口口口口 |----|
77
口口口口 |①---|
①①①① |②---|
②②②② |③---|
③③③③ |----|

不確定度: 1

最終更新:2017年08月19日 17:27