みたらしプラトニック (feat. nicamoq)
Yunomi

EXTREME

Level: 9
BPM: 160
Notes: 663

1
口口口口 |----|
口口口口 |----|
口口口口 |----|
口口口口 |----|
2
口⑧④口 |①--②|
①口口⑤ |③-④-|
口⑦③口 |⑤--⑥|
口⑥②口 |⑦-⑧-|
3
口口④口 |①--②|
①口口⑤ |③-④-|
口口③口 |⑤---|
口口②口 |----|
4
口⑥②口 |①--②|
口⑦③口 |③-④-|
①口口⑤ |⑤--⑥|
口⑧④口 |⑦-⑧-|
5
口口②口 |①--②|
口口③口 |③-④-|
①口口⑤ |⑤---|
⑥口④⑥ |⑥---|
6
口⑧④口 |①--②|
①口口⑤ |③-④-|
口⑦③口 |⑤--⑥|
口⑥②口 |⑦-⑧-|
7
口口口口 |①-②-|
⑧②③④ |③-④-|
①⑦⑥⑤ |⑤-⑥-|
口口口口 |⑦-⑧-|
8
口⑥②口 |①--②|
口⑦③口 |③-④-|
①口口⑤ |⑤--⑥|
口⑧④口 |⑦-⑧-|
9
口口口口 |①-②-|
①⑤③⑦ |③-④-|
②⑥④⑧ |⑤-⑥-|
口口口口 |⑦-⑧-|
10
口⑧④口 |①--②|
①口口⑤ |③-④-|
口⑦③口 |⑤--⑥|
口⑥②口 |⑦-⑧-|
11
①⑧口⑨ |①-②-|
口②口口 |③-④-|
口口③⑦ |⑤-⑥⑦|
⑤口⑥④ |⑧-⑨-|
12
口口④口 |①②③④|
口⑦②口 |⑤⑥⑦⑧|
③⑤口口
口①⑧⑥

口⑬口⑯
⑨口口⑫
口口⑭⑩ |⑨⑩⑪⑫|
⑪⑮口口 |⑬⑭⑮⑯|
13
⑤口口⑥ |①-②-|
④②口口 |③-④-|
①③口口 |⑤---|
口口口口 |⑥---|
14
口口口口 |①---|
口②③④ |②-③-|
口口口口 |④---|
⑤①①口 |--⑤-|
15
口⑥口口 |①-②-|
⑤⑦⑧⑨ |③-④-|
①②③④ |⑤-⑥⑦|
口口口口 |⑧-⑨-|
16
①③③① |①---|
口口口口 |--②-|
口口口口 |③---|
④②口口 |--④-|
17
口⑥⑥口 |①-②-|
⑤口口口 |③-④-|
①②③④ |⑤---|
口口口口 |⑥---|
18
口④口口 |①---|
③口口③ |②-③-|
口②口口 |④---|
⑤①①口 |--⑤-|
19
口⑥口口 |①-②-|
⑤⑦⑧⑨ |③-④-|
①②③④ |⑤-⑥⑦|
口口口口 |⑧-⑨-|
20
①③③① |①---|
口口口口 |--②-|
口口口口 |③---|
④②口口 |--④-|
21
⑤口口口 |①-②-|
口口口④ |③-④-|
①②③口 |⑤---|
口口口口 |----|
22
口口口口 |①---|
口②③④ |②-③-|
口口口口 |④---|
⑤①①口 |--⑤-|
23
口⑥口口 |①-②-|
⑤⑦⑧⑨ |③-④-|
①②③④ |⑤-⑥⑦|
口口口口 |⑧-⑨-|
24
①③③① |①---|
口口口口 |--②-|
口口口口 |③---|
④②口口 |--④-|
25
口⑥⑥口 |①-②-|
⑤口口口 |③-④-|
①②③④ |⑤---|
口口口口 |⑥---|
26
口④口口 |①---|
③口口③ |②-③-|
口②口口 |④---|
⑤①①口 |--⑤-|
27
口⑥口口 |①-②-|
⑤⑦⑧⑨ |③-④-|
①②③④ |⑤-⑥⑦|
口口口口 |⑧-⑨-|
28
①③③① |①---|
口口口口 |--②-|
口口口口 |③---|
④②口口 |--④-|
29
⑤口口口 |①-②-|
口口口④ |③-④-|
①②③口 |⑤---|
口口口口 |----|
30
口②③口 |①-②-|
①⑥口④ |③-④-|
⑥⑤⑤⑤ |⑤---|
口⑥⑤口 |⑥---|
31
③⑥⑥③ |①-②③|
口⑦②④ |④-⑤-|
⑦⑤⑤口 |⑥---|
①口口① |--⑦-|
32
口口②口 |①---|
③口口② |--②-|
口③口① |③---|
口口①④ |--④-|
33
口口口口 |①-②-|
口口口⑤ |③-④-|
④③②① |⑤---|
口口口口 |----|
34
②⑥⑤④ |①-②-|
口⑤⑥口 |③-④-|
口⑥⑤口 |⑤---|
①⑤⑥③ |⑥---|
35
②⑦⑦④ |①-②③|
③口口口 |④-⑤-|
口⑥⑤口 |⑥---|
①⑤⑥① |--⑦-|
36
口口口口 |①---|
⑤②②⑤ |--②-|
①口口① |③---|
③④④③ |④-⑤-|
37
⑤③③⑤ |①-②-|
口②②口 |③-④-|
④①①④ |⑤---|
口口口口 |----|
38
⑤②口④ |①-②-|
①⑥③口 |③-④-|
口口⑤口 |⑤---|
口口口⑥ |⑥---|
39
口④④口 |①-②-|
③口口③ |③-④-|
②口口②
口①①口

口口口口
口⑤⑤口
口口口口 |⑤---|
口⑥⑥口 |--⑥-|
40
口口口口 |①---|
口口口口 |--②-|
①②②①
口口口口

口口口口
③口口③
⑤口口⑤ |③---|
口④④口 |④-⑤-|
41
①④口① |①-②③|
⑤口③⑤ |④-⑤-|
口②口口 |⑥---|
⑥口口⑥ |----|
42
口⑤⑤口 |①---|
口②③④ |②-③-|
口口口口 |④---|
口①①口 |⑤---|
43
⑦口口⑦ |①-②③|
①口③口 |④-⑤-|
口⑥②口 |⑥---|
④口口⑤ |⑦---|
44
口②②口 |①---|
口口口口 |--②-|
①口口①
口口口口

口口口口
口⑤口口
④口口口 |③---|
口③③口 |④-⑤-|
45
口⑤⑤口 |①-②-|
口口③口 |③-④-|
口②①④ |⑤---|
口口口口 |----|
46
③④口口 |①---|
①②口⑤ |②---|
④③口口 |③---|
②①口口 |④-⑤-|
47
②口口③ |①---|
口口口口 |②---|
③口口② |③---|
①口口① |----|
48
③④口口 |①---|
①②口⑤ |②---|
④③口口 |③---|
②①口口 |④-⑤-|
49
口口②② |①---|
①①口口 |②---|
③③③③ |③---|
②②①① |----|
50
①口口口 |①--②|
⑦⑥口⑧ |③-④-|
⑤口口口 |⑤--⑥|
③②口④ |⑦-⑧-|
51
①口口口 |①--②|
⑦⑥口⑧ |③-④-|
⑤口口口 |⑤--⑥|
③②口④ |⑦-⑧-|
52
口①④口 |①②③④|
口口②口 |⑤⑥⑦⑧|
⑤③⑧口
口⑦⑥口

⑬⑮口⑩
⑨口口⑭
口口口⑯ |⑨⑩⑪⑫|
⑪口口⑫ |⑬⑭⑮⑯|
53
口口①口 |①---|
②①①口 |②---|
②①②口 |③---|
③口②③ |----|
54
⑧⑥②④ |①-②-|
①③⑦⑤ |③-④-|
⑧⑥②④ |⑤-⑥-|
口口口口 |⑦-⑧-|
55
口口④③ |①-②-|
①②口口 |③-④-|
口口④③
①②口口

⑥⑤口口
⑦⑧口口
⑥⑤口口 |⑤-⑥-|
⑦⑧口口 |⑦-⑧-|
56
③②⑤④ |①---|
口口口① |--②-|
③②⑤④ |③---|
口口口口 |④-⑤-|
57
③②口⑤ |①-②-|
②①②④ |③-④-|
③②口⑤ |⑤---|
口口口口 |----|
58
⑧⑥②④ |①-②-|
①③⑦⑤ |③-④-|
⑧⑥②④ |⑤-⑥-|
口口口口 |⑦-⑧-|
59
⑦⑧③④ |①-②-|
①②⑥⑤ |③-④-|
⑦⑧③④ |⑤-⑥-|
口口⑥⑤ |⑦-⑧-|
60
口口①口 |①---|
口①口口 |--②-|
口口①口
口①口②

口口口口
口⑤⑤口
口④④③ |③---|
口口口口 |④-⑤-|
61
口①①口 |①-②-|
口口口口 |③-④-|
口口口口
②③④口

⑥⑥口口
口口口口
⑥⑥口口 |⑤---|
口口口⑤ |⑥---|
62
⑧⑥②④ |①-②-|
①③⑦⑤ |③-④-|
⑧⑥②④ |⑤-⑥-|
口口口口 |⑦-⑧-|
63
口口口口 |①-②-|
①②⑦⑧ |③-④-|
口⑥③口 |⑤-⑥-|
口⑤④口 |⑦-⑧-|
64
①①①① |①---|
口口口口 |--②-|
⑤④④⑤ |③---|
②口口③ |④-⑤-|
65
⑤⑤⑤⑤ |①-②-|
⑥②④口 |③-④-|
口⑥⑥口 |⑤---|
口①③⑥ |⑥---|
66
口口④口 |①-②-|
口口③④ |③-④-|
②口口口
①②口口

⑧口口⑦
口口口口
口口口⑥ |⑤-⑥-|
⑦口⑥⑤ |⑦-⑧-|
67
口口口口 |①-②-|
①②⑦⑧ |③-④-|
口⑥③口 |⑤-⑥-|
口⑤④口 |⑦-⑧-|
68
①①①① |①---|
④④口口 |--②-|
口口口口 |③---|
口②③口 |--④-|
69
口口口口 |①-②-|
口口④③ |③-④-|
口口①②
口口口口

口口⑥口
⑥口口口
⑤⑤⑥口 |⑤---|
⑥口口口 |⑥---|
70
口口口口 |①---|
口②③④ |②-③-|
口口口口 |④---|
⑤①①口 |--⑤-|
71
口⑥口口 |①-②-|
⑤⑦⑧⑨ |③-④-|
①②③④ |⑤-⑥⑦|
口口口口 |⑧-⑨-|
72
①③③① |①---|
口口口口 |--②-|
口口口口 |③---|
④②口口 |--④-|
73
⑧口⑦⑨ |①-②-|
⑤口⑥口 |③-④-|
①②③④ |⑤-⑥⑦|
口口口口 |⑧-⑨-|
74
口④口口 |①---|
③口口③ |②-③-|
口②口口 |④---|
⑤①①口 |--⑤-|
75
口⑥口口 |①-②-|
⑤⑦⑧⑨ |③-④-|
①②③④ |⑤-⑥⑦|
口口口口 |⑧-⑨-|
76
①③③① |①---|
口口口口 |--②-|
口口口口 |③---|
④②口口 |--④-|
77
⑤口口口 |①-②-|
口口口④ |③-④-|
①②③口 |⑤---|
口口口口 |----|

不確定度: 1

最終更新:2017年08月19日 17:27