Macuilxochitl
TOMOSUKE

ADVANCED

Level: 8
BPM: 148
Notes: 582

1
口口口口 |----|
口口口口 |----|
口口口口 |----|
口口口口 |----|
2
口④④口 |①②-③|
口⑤⑥口 |--④-|
⑤③③⑥ |-⑤--|
①②②① |⑥---|
3
口④④口 |-①--|
⑤口口⑥ |②---|
口①②口 |③--④|
①③③② |-⑤⑥-|
4
①口口② |---①|
口③④口 |--②-|
③①②④ |--③-|
口口口口 |④---|
5
口⑤⑥口 |-①--|
④口口④ |②---|
口①②口 |③--④|
①③③② |-⑤⑥-|
6
②④⑥口 |①---|
口口口口 |②-③-|
口③⑤⑦ |④-⑤-|
①口口① |⑥-⑦-|
7
口⑥④② |①---|
口①①口 |②-③-|
口⑤口口 |④-⑤-|
⑦口③口 |⑥-⑦-|
8
⑦口口⑦ |①②--|
口①②口 |③-④-|
④口口③ |⑤-⑥-|
⑥口口⑤ |⑦---|
9
口口口口 |①---|
①⑤⑤① |②---|
②③③② |-③-④|
④口口④ |-⑤--|
10
口②①口 |①-②-|
①⑤⑥② |---③|
⑤③口⑥ |--④-|
③口口④ |⑤--⑥|
11
①口②③ |---①|
口口口口 |----|
口①口口 |-②③-|
口口口口 |----|
12
②口口② |----|
口口口口 |----|
口口口口 |----|
①口口① |①②--|
13
口口口口 |---①|
口①②口 |-②-③|
③口口口
口口口口
14
口口口口 |①--②|
③口口④ |--③④|
口口口①
口②②口

⑥口口⑥
口口⑦口
⑤口口⑤ |---⑤|
口口口口 |-⑥-⑦|
15
口⑤④口 |①---|
③①口⑥ |②-③-|
口口口口 |④-⑤-|
口②②口 |⑥---|
16
口⑤口口 |①-②-|
口③⑧⑥ |③-④-|
⑦口口④ |⑤-⑥-|
①口口② |⑦-⑧-|
17
口口②口 |①-②③|
①④口④ |-④-⑤|
⑤口⑤口
③口③口

口⑥口⑥
⑧口⑧口
口⑨口⑨ |-⑥-⑦|
口⑦口⑦ |-⑧-⑨|
18
①③①③ |-①-②|
口⑤口⑤ |-③-④|
②口②口 |-⑤--|
④⑥④⑥ |-⑥--|
19
口②口② |---①|
口④口④ |-②-③|
①口①口 |-④--|
③⑤③⑤ |-⑤--|
20
口口口口 |①-②-|
①③口⑤ |--③-|
⑥④②口 |④-⑤-|
口口口口 |--⑥-|
21
②⑤口口 |①-②-|
③⑥②⑤ |③-④-|
口口④⑥ |--⑤-|
口口①口 |-⑥--|
22
口口口口 |①-②-|
口口口口 |③---|
口①口口
口③③②

④口口⑤
口口口口
⑥口口口 |---④|
口⑥口口 |-⑤-⑥|
23
④口口口 |-①-②|
②④口③ |-③-④|
口②③①
口口①口

口⑥⑦⑤
口口⑤口
口口口口 |-⑤-⑥|
口⑧⑧口 |⑦-⑧-|
24
口⑤⑤口 |①②-③|
②④④② |-④-⑤|
①③③① |--⑥-|
⑥⑦⑧⑥ |⑦⑧--|
25
①口口① |-①-②|
②口口② |-③-④|
③⑤⑤③ |--⑤-|
④口口④ |----|
26
口②①口 |-①--|
①口口② |②---|
④口口④ |--③-|
口③③口 |--④-|
27
④②①④ |-①--|
①口口② |②---|
口口口口 |-③--|
口③③口 |-④--|
28
④②①④ |-①--|
①口口② |②---|
口口口口 |--③-|
口③③口 |--④-|
29
口②①口 |-①--|
①口口② |②---|
④口口④ |③---|
口③③口 |④---|
30
①口⑧口 |①-②-|
③口②口 |③-④-|
⑤口④口 |⑤-⑥-|
⑦口⑥口 |⑦-⑧-|
31
口⑥口⑦ |①-②-|
口④口⑤ |③-④-|
口②口③ |⑤-⑥-|
口⑧口① |⑦-⑧-|
32
①口⑧口 |①-②-|
③口②口 |③-④-|
⑤口④口 |⑤-⑥-|
⑦口⑥口 |⑦-⑧-|
33
①口口① |①--②|
④②③⑤ |-③--|
口⑤④口 |④--⑤|
口口口口 |----|
34
④口口④ |①②-③|
口①②口 |-④-⑤|
①口口②
⑤③③⑤
35
口口①口 |--①②|
口口③② |-③④-|
⑦⑥⑤④ |-⑤-⑥|
口⑧口口 |-⑦⑧-|
36
口①口③ |①②--|
②口④口 |③④--|
⑧口口⑤ |⑤⑥-⑦|
口⑨⑥⑦ |⑧⑨--|
37
④口口② |-①②-|
口①③口 |-③④-|
⑤⑦⑧⑤ |⑤--⑥|
⑥口口⑥ |-⑦⑧-|
38
口①②③ |-①②③|
口口口口 |----|
口口口口 |----|
口口口口 |----|
39
③口口② |-①②-|
口①④口 |-③④-|
⑤⑦⑧⑤ |⑤--⑥|
⑥口口⑥ |-⑦-⑧|
40
口①②③ |-①②③|
口口口口 |----|
口⑤④口 |----|
⑦口口⑥ |④⑤⑥⑦|
41
②④⑥① |①-②-|
②口口① |③-④-|
③⑦⑧⑤ |⑤-⑥-|
口⑨⑩口 |⑦⑧⑨⑩|
42
②④⑥① |①-②-|
②口口① |③-④-|
③⑦⑧⑤ |⑤-⑥-|
口⑨⑩口 |⑦⑧⑨⑩|
43
②④⑥① |①-②-|
②口口① |③-④-|
③⑦⑧⑤ |⑤-⑥-|
口⑨⑩口 |⑦⑧⑨⑩|
44
②④⑥① |①-②-|
②口口① |③-④-|
③⑦⑧⑤ |⑤-⑥-|
口⑨⑩口 |⑦⑧⑨⑩|
45
口④③口 |①--②|
口②①口 |--③-|
④⑤⑥③ |-④--|
②口口① |⑤⑥--|
46
②口口① |①--②|
口①②口 |--③-|
④口口③ |-④--|
口③④口
47
③口口④ |-①②③|
①⑤⑤② |④-⑤⑥|
口⑥⑥口
口口口口
48
⑤口口⑥ |①---|
②⑦口② |--②③|
③口口③ |④-⑤-|
④①①④ |⑥-⑦-|
49
口口口口 |①---|
②口①② |--②③|
③口口③ |④---|
④口口④ |----|
50
②①①② |①---|
③口口③ |-②③④|
④口口④ |⑤---|
⑤⑥⑥⑤ |⑥---|
51
口②②口 |①---|
口口口口 |----|
③①①⑤ |②-③-|
口口口④ |④-⑤-|
52
⑤口口⑦ |①---|
口②②⑥ |--②③|
口③③口 |④-⑤-|
①④④口 |⑥-⑦-|
53
口口口口 |①---|
①②②口 |--②③|
口③③口 |④---|
口④④口 |----|
54
②①①② |①---|
③口口③ |-②③④|
④口口④
口口口口

口⑥口口
口口口口
口口⑥口 |⑤---|
⑤口口⑤ |⑥---|
55
口口①口 |①---|
口②②口 |----|
口①口口 |②---|
口口口口 |----|
56
⑤⑦⑦⑥ |①②③④|
口⑥⑤口 |-⑤-⑥|
①口口② |--⑦-|
③口口④ |----|
57
口⑦⑧口 |①②③④|
⑤口口⑥ |--⑤-|
①⑥⑤② |⑥-⑦⑧|
③口口④ |----|
58
⑤⑦⑦⑥ |①②③④|
口⑥⑤口 |-⑤-⑥|
①口口② |--⑦-|
③口口④ |----|
59
口⑦⑧口 |①②③④|
⑤口口⑥ |--⑤-|
①⑥⑤② |⑥-⑦⑧|
③口口④ |----|
60
⑤⑦⑦⑥ |①②③④|
口⑥⑤口 |-⑤-⑥|
①口口② |--⑦-|
③口口④ |----|
61
口⑦⑧口 |①②③④|
⑤口口⑥ |--⑤-|
①⑥⑤② |⑥-⑦⑧|
③口口④ |----|
62
⑤⑦⑦⑥ |①②③④|
口⑥⑤口 |-⑤-⑥|
①口口② |--⑦-|
③口口④ |----|
63
口口口口 |①②③④|
⑤⑦⑧⑥ |--⑤-|
①⑥⑤② |⑥-⑦⑧|
③口口④ |----|
64
口口口口 |①-②-|
口③口口 |-③④⑤|
①④口②
①⑤口②

口口⑥⑩
口口⑦⑪
口口⑧⑫ |⑥⑦⑧⑨|
口口⑨⑬ |⑩⑪⑫⑬|
65
①①口口 |①---|
口口口口 |----|
口口口口 |----|
口口口口 |----|


不確定度: 0

最終更新:2013年03月29日 20:35