脱法ロック
Neru

EXTREME

Level: 8
BPM: 155
Notes: 632

1
口口口口 |----|
口口口口 |----|
口口口口 |----|
口口口口 |----|
2
口口口口 |----|
口①①口 |----|
口口口口 |①---|
口①①口 |----|
3
⑦⑤⑤口 |①-②-|
④⑦口③ |③-④-|
②⑥⑥① |⑤--⑥|
口口口口 |--⑦-|
4
口口口③ |--①-|
口口口② |②-③-|
口口口① |--④-|
④④口⑤ |--⑤-|
5
口⑤⑤⑦ |①-②-|
③口⑦④ |③-④-|
①⑥⑥② |⑤--⑥|
口口口口 |--⑦-|
6
口口口口 |--①-|
①⑤口口 |--②-|
①口④口 |--③④|
口③②② |⑤---|
7
⑦⑤⑤口 |①-②-|
④⑦口③ |③-④-|
②⑥⑥① |⑤--⑥|
口口口口 |--⑦-|
8
口⑤⑤③ |--①-|
口口口② |②-③-|
口口口① |--④-|
④④口口 |--⑤-|
9
口口口口 |①---|
口①①口 |--②-|
②口口②
②口口②

③口⑤口
口④口口
口口口口 |--③-|
口口口口 |④-⑤-|
10
口⑦口③ |①-②-|
口口口④ |--③-|
口①①⑤ |④-⑤-|
口②②⑥ |⑥-⑦-|
11
③口③口 |①-②-|
口口①口 |③---|
③②③口
口口口口

口口口口
⑤④⑤④
口口口口 |④---|
⑤④⑤④ |⑤---|
12
口口口③ |①-②-|
④④口⑤ |③---|
④②④① |④-⑤-|
口④④⑥ |⑥---|
13
①②口② |①---|
③④③④ |②---|
口②口② |③---|
③④③④ |④---|
14
③口口口 |①-②-|
⑤口④④ |③---|
①④②④ |④-⑤-|
⑥④④口 |⑥---|
15
②口②① |①---|
④③④③ |②---|
②口②口 |③---|
④③④③ |④---|
16
口口口③ |①-②-|
④④口⑤ |③---|
④②④① |④-⑤-|
口④④⑥ |⑥---|
17
①②口② |①---|
③④③④ |②---|
口②口② |③---|
③④③④ |④---|
18
③口口口 |①-②-|
口口口口 |③---|
①口②口
口口口口

口口口口
⑤口④④
⑤④口④ |④---|
口④④口 |⑤---|
19
②口⑤① |①-②-|
口口口⑦ |③-④-|
⑥④③⑦ |⑤--⑥|
⑥口口口 |--⑦-|
20
口③口口 |--①-|
口口②口 |②-③-|
⑤①口④ |--④-|
口口口④ |--⑤-|
21
口⑤⑤口 |①-②-|
④③②① |③-④-|
⑦⑦口口 |⑤--⑥|
⑥⑦口⑥ |--⑦-|
22
口③③口 |--①-|
②口口口 |②-③-|
口口①① |--④-|
④口①④ |----|
23
④口⑤① |①-②-|
口口口⑦ |③-④-|
⑥③②⑦ |⑤--⑥|
⑥口口口 |--⑦-|
24
口③口口 |--①-|
口⑤②口 |②-③-|
⑤①口口 |--④-|
口口口④ |--⑤-|
25
口④口③ |①---|
口口①⑤ |--②-|
口口口① |--③-|
口②②口 |④-⑤-|
26
②口②口 |--①-|
②口②口 |②---|
①①①口 |----|
①①①口 |----|
27
⑥③③口 |①-②-|
⑤①①口 |--③-|
④②②口 |--④-|
口口⑥⑥ |⑤-⑥-|
28
口①口口 |--①-|
⑦②③③ |②-③-|
口③①① |--④⑤|
口④⑤⑥ |⑥-⑦-|
29
口②口① |①---|
口口③口 |②-③-|
口口口①
口口口口

⑥口⑤口
口口口口
⑥④口⑤ |④--⑤|
口口口口 |--⑥-|
30
⑤口口口 |--①-|
⑤口①口 |②-③-|
⑤②口④ |④---|
③口④④ |⑤---|
31
口③③⑥ |①-②-|
口①①⑤ |--③-|
口②②④ |--④-|
⑥⑥口口 |⑤-⑥-|
32
口口①口 |--①-|
③③②⑦ |②-③-|
①①③口 |--④⑤|
⑥⑤④口 |⑥-⑦-|
33
⑤⑧⑧⑥ |①-②-|
口③④口 |③-④-|
①口口② |⑤-⑥-|
口⑦⑦口 |⑦-⑧-|
34
口口口口 |----|
①口②① |①---|
口③口口 |--②-|
①口④① |③-④-|
35
⑦⑤口口 |①-②-|
③①⑧⑥ |③-④-|
⑤⑦④② |⑤-⑥-|
①③口口 |⑦-⑧-|
36
口口①① |①-②-|
①口口口 |--③-|
口口口③
口口②②

④④口口
⑥口口④
口口口口 |④-⑤-|
⑤⑤口口 |--⑥-|
37
口口⑤⑦ |①-②-|
⑥⑧①③ |③-④-|
②④⑦⑤ |⑤-⑥-|
口口③① |⑦-⑧-|
38
①①口口 |①-②-|
口口口① |--③-|
③口口口
②②口口

口口④④
④口口⑥
口口口口 |④-⑤-|
口口⑤⑤ |--⑥-|
39
⑦⑤口口 |①-②-|
③①⑧⑥ |③-④-|
⑤⑦④② |⑤-⑥-|
①③口口 |⑦-⑧-|
40
④④①① |①-②-|
①口口④ |--③-|
口⑥口③ |④-⑤-|
⑤⑤②② |--⑥-|
41
口口口③ |①-②-|
口口口③ |--③-|
③口①②
③口口口

④④口口
口⑤⑤口
口⑤⑤口 |--④-|
口口④④ |--⑤-|
42
③口口② |--①-|
口⑤口口 |②-③-|
①口⑥④ |④-⑤⑥|
口⑦口口 |⑦---|
43
口口⑤⑦ |①-②-|
⑥⑧①③ |③-④-|
②④⑦⑤ |⑤-⑥-|
口口③① |⑦-⑧-|
44
①①口口 |①-②-|
口口口① |--③-|
③口口口
②②口口

口口④④
④口口⑥
口口口口 |④-⑤-|
口口⑤⑤ |--⑥-|
45
⑦⑤口口 |①-②-|
③①⑧⑥ |③-④-|
⑤⑦④② |⑤-⑥-|
①③口口 |⑦-⑧-|
46
口口①① |①-②-|
①口口口 |--③-|
口口口③
口口②②

④④口口
⑥口口④
口口口口 |④-⑤-|
⑤⑤口口 |--⑥-|
47
口口⑤⑦ |①-②-|
⑥⑧①③ |③-④-|
②④⑦⑤ |⑤-⑥-|
口口③① |⑦-⑧-|
48
①①④④ |①-②-|
④口口① |--③-|
③⑥口口 |④-⑤-|
②②⑤⑤ |--⑥-|
49
口口口③ |①-②-|
口口口③ |--③-|
③口①②
③口口口

④④口口
口⑤⑤口
口⑤⑤口 |--④-|
口口④④ |--⑤-|
50
③口口② |--①-|
口⑤口口 |②-③-|
①口⑥④ |④-⑤⑥|
口⑦口口 |⑦---|
51
口④③口 |①--②|
②⑤⑤① |--③-|
④⑤⑤③ |-④--|
②口口① |⑤---|
52
口口口口 |----|
①口口① |----|
口口口口 |①-②-|
②口口② |----|
53
②口②口 |①---|
口口①口 |②---|
②①②口
口口口口

口口口口
④③④③
口口口口 |③---|
④③④③ |④---|
54
口口口③ |①-②-|
④④口⑤ |③---|
④②④① |④-⑤-|
口④④⑥ |⑥---|
55
①②口② |①---|
③④③④ |②---|
口②口② |③---|
③④③④ |④---|
56
③口口口 |①-②-|
⑤口④④ |③---|
①④②④ |④-⑤-|
⑥④④口 |⑥---|
57
②口②① |①---|
④③④③ |②---|
②口②口 |③---|
④③④③ |④---|
58
口口口③ |①-②-|
④④口⑤ |③---|
④②④① |④-⑤-|
口④④⑥ |⑥---|
59
①②口② |①---|
③④③④ |②---|
口②口② |③---|
③④③④ |④---|
60
③口口口 |①-②-|
⑤口④④ |③---|
①④②④ |④-⑤-|
⑥④④口 |⑥---|
61
②②①① |①-②-|
口口口口 |③---|
③⑤⑤④ |④---|
口③④口 |⑤---|
62
口口口口 |①-②-|
口④④③ |③---|
④口口④ |④---|
②④④① |----|

不確定度: 0

最終更新:2018年07月16日 23:05