シャルル
バルーン

EXTREME

Level: 8
BPM: 145
Notes: 635

1
口口口口 |----|
口口口口 |----|
口口口口 |----|
口口口口 |----|
2
口①②口 |----|
口口口口 |----|
口口口口 |----|
口口口口 |①-②-|
3
口口口口 |①-②-|
⑥①②口 |③--④|
⑦③⑤④ |⑤-⑥-|
⑧口口口 |⑦-⑧-|
4
⑤口口口 |①---|
口⑥①① |②--③|
③④⑦口 |④-⑤-|
口口②② |⑥-⑦-|
5
口④⑤口 |--①-|
口口口① |②-③-|
②⑥⑦口 |④-⑤-|
口口口③ |⑥-⑦-|
6
口口④③ |①--②|
①①口口 |----|
口口④③ |③---|
②②口口 |④---|
7
⑪⑫口⑩ |①-②-|
①口⑨⑧ |③-④⑤|
②口⑦⑥ |⑥⑦⑧⑨|
③口⑤④ |⑩-⑪⑫|
8
⑦口①口 |①-②-|
口⑧口口 |③④⑤⑥|
②④⑨③ |--⑦-|
口⑥口⑤ |⑧-⑨-|
9
口④④口 |①-②③|
②⑤⑤① |----|
③口口口 |④-⑤-|
⑥口口⑥ |⑥---|
10
④口口③ |①---|
④口口③ |②-③-|
②⑤⑤① |④---|
口②①口 |⑤---|
11
口⑨口⑨ |①②-③|
⑥②③⑦ |④-⑤⑥|
口口口⑨ |-⑦⑧-|
④⑧⑤① |⑨---|
12
⑨口⑨口 |①②-③|
⑦③②⑥ |④-⑤⑥|
⑨口口口 |-⑦⑧-|
①⑤⑧④ |⑨---|
13
口⑨口⑨ |①②-③|
⑥②③⑦ |④-⑤⑥|
口口口⑨ |-⑦⑧-|
④⑧⑤① |⑨---|
14
⑨口⑨口 |①②-③|
⑦③②⑥ |④-⑤⑥|
⑨口口口 |-⑦⑧-|
①⑤⑧④ |⑨---|
15
口⑨口⑨ |①②-③|
⑥②③⑦ |④-⑤⑥|
口口口⑨ |-⑦⑧-|
④⑧⑤① |⑨---|
16
⑨口⑨口 |①②-③|
⑦③②⑥ |④-⑤⑥|
⑨口口口 |-⑦⑧-|
①⑤⑧④ |⑨---|
17
口⑨口⑨ |①②-③|
⑥②③⑦ |④-⑤⑥|
口口口⑨ |-⑦⑧-|
④⑧⑤① |⑨---|
18
口⑩口⑨ |①②-③|
⑦③②⑥ |④-⑤⑥|
口口口口 |-⑦⑧-|
①⑤⑧④ |⑨-⑩-|
19
口口口口 |①-②-|
④口③口 |③--④|
口②口①
口口口口

口口口口
口⑤口⑥
口口口⑦ |⑤-⑥-|
口口口⑧ |⑦-⑧-|
20
⑥②口③ |①--②|
口⑦口口 |③--④|
④⑤⑧口 |⑤-⑥-|
①①口口 |⑦-⑧-|
21
口④⑤口 |--①-|
①口口口 |②-③-|
口⑥⑦② |④-⑤-|
③口口口 |⑥-⑦-|
22
④③⑤② |①--②|
①⑥⑦口 |③---|
①⑧⑨口 |④-⑤⑥|
口口口口 |⑦⑧⑨-|
23
⑪⑫口⑩ |①-②-|
①口⑨⑧ |③-④⑤|
②口⑦⑥ |⑥⑦⑧⑨|
③口⑤④ |⑩-⑪⑫|
24
口口①口 |①--②|
⑥⑥⑤④ |③-④⑤|
②③⑦⑦ |--⑥-|
⑧⑧口口 |⑦-⑧-|
25
口口口① |①---|
口⑤口① |②---|
口口④口 |③-④-|
口③②② |⑤---|
26
①口口口 |①---|
①④口③ |②-③-|
⑥口⑤口 |④---|
②②口口 |⑤-⑥-|
27
①①⑥⑤ |①-②-|
⑥口⑤⑥ |--③-|
口口③② |④-⑤-|
④④②③ |--⑥-|
28
口③口口 |①-②-|
口口口口 |③-④-|
①口④②
口口②④

⑤口口口
口口口⑦
⑦⑥口⑦ |⑤-⑥-|
口⑥口口 |⑦---|
29
口④⑤口 |--①-|
①口口口 |②-③-|
口口②口 |④-⑤-|
③⑥⑦口 |⑥-⑦-|
30
①口口② |①---|
①口口② |②---|
①口口②
①口口②

⑦口口口
④⑤⑥口
口③③口 |③-④⑤|
口③③口 |⑥-⑦-|
31
⑤⑥①① |①-②-|
⑥⑤口⑥ |--③-|
②③口口 |④-⑤-|
③②④④ |--⑥-|
32
口口③口 |①-②-|
口口口口 |③-④-|
②④口①
④②口口

口口口⑤
⑦口口口
⑦口⑥⑦ |⑤-⑥-|
口口⑥口 |⑦---|
33
口④③② |①-②-|
⑥①①⑤ |③-④-|
口口口口 |⑤-⑥-|
口⑧⑦口 |⑦-⑧-|
34
口口口口 |①---|
口②②口 |----|
口③③口 |②-③-|
①④④① |④---|
35
②④②④ |①---|
口口口口 |②---|
②口口④ |③---|
①③③① |④---|
36
口口口口 |①-②-|
①②③④ |③-④-|
①②③④
口口口口

口⑤⑤口
口口口口
口⑥⑦口 |⑤---|
口口口口 |⑥-⑦-|
37
⑥口口⑤ |--①-|
口口口① |②-③-|
②④④口 |④---|
口口口③ |⑤-⑥-|
38
口①②③ |①---|
①②③④ |②---|
②③④口 |③---|
③④口口 |④---|
39
口口⑤⑤ |①--②|
②⑧③⑤ |③-④-|
⑥④⑦① |⑤--⑥|
口口①① |⑦-⑧-|
40
口口⑤⑤ |①--②|
②⑥③⑤ |③-④-|
口④⑥① |⑤---|
口口①① |⑥---|
41
口口⑧口 |①-②-|
⑤口口④ |③-④-|
口⑦⑥口 |⑤-⑥-|
③①①② |⑦-⑧-|
42
③①口② |①---|
③⑥⑥② |②-③-|
⑤⑤④④ |④-⑤-|
口口口口 |⑥---|
43
④②④② |①---|
口口口口 |②---|
④口口② |③---|
①③③① |④---|
44
口①口① |①-②-|
②口②口 |③-④-|
口③口③
④口④口

口口口口
口⑥⑥⑤
口⑦⑦口 |⑤---|
口口口⑤ |⑥-⑦-|
45
⑥口口⑤ |--①-|
口口口① |②-③-|
②④④口 |④---|
口口口③ |⑤-⑥-|
46
口①②③ |①---|
①②③④ |②---|
②③④口 |③---|
③④口口 |④---|
47
口口⑤⑤ |①--②|
②⑧③⑤ |③-④-|
⑥④⑦① |⑤--⑥|
口口①① |⑦-⑧-|
48
口口⑤⑤ |①--②|
②⑥③⑤ |③-④-|
口④⑥① |⑤---|
口口①① |⑥---|
49
口①②口 |①-②-|
①⑤⑥② |③-④-|
③⑦⑧④ |⑤-⑥-|
口③④口 |⑦-⑧-|
50
①口口① |①---|
口③③口 |②---|
口④④口 |③-④-|
②⑤⑤② |⑤---|
51
③⑦③⑦ |①-②-|
⑧②⑥④ |③-④-|
③口口⑦ |⑤-⑥-|
①⑤⑤① |⑦-⑧-|
52
口口口口 |①-②-|
口口口口 |③-④-|
①②③④
口口口口

⑤⑤口口
口口⑥⑥
⑦⑦口口 |⑤-⑥-|
口口⑧⑧ |⑦-⑧-|
53
口口口① |①--②|
②⑧③⑤ |③-④-|
⑥④⑦① |⑤--⑥|
口口口⑤ |⑦-⑧-|
54
口口⑤① |①--②|
②⑥③口 |③-④-|
口④⑦① |⑤-⑥-|
口⑧口口 |⑦-⑧-|
55
⑦③⑦③ |①-②-|
④⑥②⑧ |③-④-|
⑦口口③ |⑤-⑥-|
①⑤⑤① |⑦-⑧-|
56
口口口口 |①-②-|
口口口口 |③-④-|
④③②①
口口口口

口口⑤⑤
⑥⑥口口
口口⑦⑦ |⑤-⑥-|
⑧⑧口口 |⑦-⑧-|
57
①口口口 |①--②|
⑤③⑧② |③-④-|
①⑦④⑥ |⑤--⑥|
⑤口口口 |⑦-⑧-|
58
①口口口 |①--②|
口③口② |③-④-|
①口④口
口口口口

⑨⑤⑤⑥
口口⑦口
口⑧口口 |⑤-⑥⑦|
口口口口 |⑧-⑨-|
59
口口口⑤ |①--②|
⑥④⑦① |③-④-|
②⑧③⑤ |⑤--⑥|
口口口① |⑦-⑧-|
60
口口口口 |①-②-|
④口口③ |③-④-|
④口口③
②②①①

⑤⑤⑤⑤
口口口口
口口口口 |⑤---|
口⑥⑥口 |⑥---|
61
②口口② |①-②-|
③口口③ |③-④-|
④①①④
口口口口

口口口口
口⑤⑤口
口⑦⑦口 |⑤---|
口⑥⑥口 |⑥-⑦-|
62
②②①① |①---|
②口口① |②---|
口③③口 |③---|
口③③口 |----|

不確定度: 0

最終更新:2018年07月16日 23:00