Glorious Days
GRANRODEO

EXTREME

Level: 9
BPM: 135
Notes: 832

1
口口口口 |----|
口口口口 |----|
口口口口 |----|
口口口口 |----|
2
口③②口 |①-②③|
口⑤④口 |④⑤⑥-|
口口⑥口
①口口①

口口⑩⑩
⑦口口⑪
⑫口口⑧ |⑦⑧⑨-|
⑨口口口 |⑩-⑪⑫|
3
⑧口口⑦ |①-②③|
⑧②③⑦ |④⑤⑥-|
口④⑤口 |⑦---|
口⑥口① |⑧---|
4
口③②口 |①-②③|
口⑤④口 |④⑤⑥-|
口口⑥口
①口口①

口口⑩⑩
⑦口口⑪
⑫口口⑧ |⑦⑧⑨-|
⑨口口口 |⑩-⑪⑫|
5
⑪⑦⑦口 |①-②③|
⑪②③⑩ |④⑤⑥-|
⑨④⑤⑧ |⑦--⑧⑨⑩|
口⑥口① |⑪---|
6
口③②口 |①-②③|
口⑤④口 |④⑤⑥-|
口口⑥口
①①①①

口口⑩⑩
⑦口口⑪
⑫口口⑧ |⑦⑧⑨-|
⑨口口口 |⑩-⑪⑫|
7
口口口口 |①-②③|
口②③口 |④⑤⑥-|
口④⑤口
口⑥口①

⑩口口⑦
⑩口口⑦
⑪⑫口⑧ |⑦-⑧⑨|
口口⑨口 |⑩-⑪⑫|
8
口③②口 |①-②③|
口⑤④口 |④⑤⑥-|
口口⑥口
①口口①

口口⑩⑩
⑦口口⑪
⑫口口⑧ |⑦⑧⑨-|
⑨口口口 |⑩-⑪⑫|
9
④④口口 |①②③-|
④④口口 |④-⑤⑥|
口⑤③口
口②①⑥

口口⑧⑧
口口⑧⑧
口口⑩口 |⑦-⑧-|
⑦⑨口口 |--⑨⑩|
10
②①口口 |①--②|
①②⑤口 |--③-|
口③口⑤ |--④-|
③口④④ |⑤---|
11
①④②④ |①--②|
口口口口 |--③-|
①⑤②⑤ |④---|
口③③口 |⑤---|
12
口③②口 |①-②③|
口⑤④口 |④⑤⑥-|
口口⑥口
①口口①

口口⑩⑩
⑦口口⑪
⑫口口⑧ |⑦⑧⑨-|
⑨口口口 |⑩-⑪⑫|
13
口口口⑨ |①-②③|
口②③⑧ |④⑤⑥-|
口④⑤⑦ |⑦-⑧-|
口⑥⑩① |⑨-⑩-|
14
口③口口 |①--②|
③口⑤⑥ |--③-|
②①⑥⑤ |--④-|
①②④④ |⑤-⑥-|
15
②②①① |①--②|
口口口口 |--③-|
口口口③
口口③口

口口口⑤
口口口⑤
④口口口 |--④-|
口④口口 |⑤---|
16
口③②口 |①-②③|
口⑤④口 |④⑤⑥-|
口口⑥口
①口口①

口口⑩⑩
⑦口口⑪
⑫口口⑧ |⑦⑧⑨-|
⑨口口口 |⑩-⑪⑫|
17
口口口口 |①-②③|
口②③口 |④⑤⑥-|
口④⑤口
口⑥口①

口⑩口⑩
口口⑩⑨
口口口⑧ |⑦-⑧-|
口口⑦口 |⑨-⑩-|
18
②⑧①⑧ |①-②-|
③②⑧⑥ |③-④-|
②④⑥⑦ |⑤-⑥-|
④⑤④⑥ |⑦-⑧-|
19
②口①口 |①-②-|
③②口口 |③-④-|
②④口口
④口④口

⑧口口⑨
口口⑥⑦
⑩口口⑪ |⑤-⑥⑦|
口⑤口口 |⑧⑨⑩⑪|
20
口③②口 |①-②③|
口⑤④口 |④⑤⑥-|
口口⑥口
①口口①

口口⑩⑩
⑦口口⑪
⑫口口⑧ |⑦⑧⑨-|
⑨口口口 |⑩-⑪⑫|
21
口口口口 |①-②③|
口②③口 |④⑤⑥-|
口④⑤口
口⑥口①

⑩口⑩口
⑨⑩口口
⑧口口口 |⑦-⑧-|
⑦口口口 |⑨-⑩-|
22
⑧①⑧② |①-②-|
⑥⑧②③ |③-④-|
⑦⑥④② |⑤-⑥-|
⑥④⑤④ |⑦-⑧-|
23
口①口② |①-②-|
口口②③ |③-④-|
口口④②
口④口④

⑥口口口
⑦⑥口口
⑥口口⑧ |⑤-⑥-|
口口⑤口 |⑦-⑧-|
24
口③②口 |①-②③|
口⑤④口 |④⑤⑥-|
口口⑥口
①口口①

口口⑩⑩
⑦口口⑪
⑫口口⑧ |⑦⑧⑨-|
⑨口口口 |⑩-⑪⑫|
25
口口⑨⑨ |①-②③|
口②③口 |④⑤⑥-|
⑧④⑤⑧ |⑦-⑧-|
⑦⑥⑦① |⑨---|
26
②①口⑥ |①--②|
①②⑤⑥ |--③-|
口③口⑤ |--④-|
③口④④ |⑤-⑥-|
27
①④②④ |①--②|
口口口口 |--③-|
①⑤②⑤ |④---|
口③③口 |⑤---|
28
口③②口 |①-②③|
口⑤④口 |④⑤⑥-|
口口⑥口
①口口①

口口⑩⑩
⑦口口⑪
⑫口口⑧ |⑦⑧⑨-|
⑨口口口 |⑩-⑪⑫|
29
口口口口 |①-②③|
口②③口 |④⑤⑥-|
口④⑤口
口⑥口①

口口口⑨
口口口⑧
口口口⑦ |⑦-⑧-|
口口⑪⑩ |⑨-⑩⑪|
30
口③口口 |①--②|
③口⑤⑥ |--③-|
②①⑥⑤ |--④-|
①②④④ |⑤-⑥-|
31
②②①① |①--②|
口口口口 |--③-|
口口口③
口口③口

口口口⑤
口口口⑤
④口口口 |--④-|
口④口口 |⑤---|
32
口③②口 |①-②③|
口⑤④口 |④⑤⑥-|
口口⑥口
①口口①

口口⑩⑩
⑦口口⑪
⑫口口⑧ |⑦⑧⑨-|
⑨口口口 |⑩-⑪⑫|
33
口口口口 |①-②③|
口②③口 |④⑤⑥-|
口④⑤口
口⑥口①

口⑩口⑩
口口⑩⑨
口口口⑧ |⑦-⑧-|
口口⑦口 |⑨-⑩-|
34
②⑧①⑧ |①-②-|
③②⑧⑥ |③-④-|
②④⑥⑦ |⑤-⑥-|
④⑤④⑥ |⑦-⑧-|
35
②口①口 |①-②-|
③②口口 |③-④-|
②④口口
④口④口

⑧口口⑨
口口⑥⑦
⑩口口⑪ |⑤-⑥⑦|
口⑤口口 |⑧⑨⑩⑪|
36
口③②口 |①-②③|
口⑤④口 |④⑤⑥-|
口口⑥口
①口口①

口口⑩⑩
⑦口口⑪
⑫口口⑧ |⑦⑧⑨-|
⑨口口口 |⑩-⑪⑫|
37
口口口口 |①-②③|
口②③口 |④⑤⑥-|
口④⑤口
口⑥口①

⑩口⑩口
⑨⑩口口
⑧口口口 |⑦-⑧-|
⑦口口口 |⑨-⑩-|
38
⑧①⑧② |①-②-|
⑥⑧②③ |③-④-|
⑦⑥④② |⑤-⑥-|
⑥④⑤④ |⑦-⑧-|
39
口①口② |①-②-|
口口②③ |③-④-|
口口④②
口④口④

⑥口口口
⑦⑥口口
⑥口口⑧ |⑤-⑥-|
口口⑤口 |⑦-⑧-|
40
口③②口 |①-②③|
口⑤④口 |④⑤⑥-|
口口⑥口
①口口①

口口⑩⑩
⑦口口⑪
⑫口口⑧ |⑦⑧⑨-|
⑨口口口 |⑩-⑪⑫|
41
口口口口 |①-②③|
口②③口 |④⑤⑥-|
口④⑤口
口⑥口①

⑩⑦⑦⑩
⑨⑩⑩⑨
⑧口口⑧ |⑦-⑧-|
口口口口 |⑨-⑩-|
42
口①①口 |--①-|
口口口口 |----|
口①①口
口口口口

⑤口口⑤
②④④②
口⑤⑤口 |②-③-|
口③③口 |④-⑤-|
43
口①①口 |--①-|
口口口口 |----|
①口口①
口口口口

口③口口
③口口口
口口口口 |--②-|
口口口② |--③-|
44
口⑧②口 |①-②-|
⑧⑦⑤② |③-④-|
④③①⑥ |⑤-⑥-|
口④⑥口 |⑦-⑧-|
45
②口口口 |①-②③|
口口口③ |④---|
口口①口
④口口口

⑤口口⑤
口口口口
口口口口 |----|
口口口口 |--⑤-|
46
口⑤⑤口 |--①-|
③①②④ |②-③-|
①③④② |④--⑤|
口⑥⑥口 |--⑥-|
47
①口口② |----|
③口口③ |--①-|
①③③② |②---|
口口口口 |③---|
48
口①②口 |①②③④|
口③④口 |⑤⑥⑦⑧|
⑦口口⑧
⑤口口⑥

⑨口口⑩
⑪⑮⑮⑫
口口口口 |⑨⑩⑪⑫|
口⑬⑭口 |⑬⑭⑮-|
49
③口口③ |--①-|
口口口口 |②-③-|
①口口②
①口口②

口④口口
④口⑤口
口⑤口⑥ |--④-|
口口⑥口 |⑤-⑥-|
50
②②①口 |①---|
口①③① |②-③-|
口④①口 |--④-|
⑤口④③ |--⑤-|
51
口④口⑤ |①-②③|
口口③口 |④-⑤⑥|
口⑥口①
口②口口

口口⑧口
口⑨口⑧
⑩口⑨口 |⑦-⑧-|
口⑩口⑦ |⑨-⑩-|
52
口口②② |--①-|
口③口口 |②-③-|
口口口口
③口①①

口口口口
口口口口
口口④口 |--④-|
口④口⑤ |--⑤-|
53
②⑩⑤口 |①-②③|
⑩⑥⑨③ |④-⑤⑥|
①⑨⑦⑧ |⑦-⑧-|
④口⑧口 |⑨-⑩-|
54
⑤⑦④⑦ |①-②-|
口③口④ |③-④-|
②口③口 |⑤---|
⑥②口① |⑥-⑦-|
55
⑧⑤②⑧ |①-②-|
⑤③⑥② |③-④-|
④⑥③⑦ |⑤-⑥-|
口④⑦① |⑦-⑧-|
56
口④口口 |①-②③|
口①⑤③ |④-⑤⑥|
口⑥①口
②口口口

口口口⑪
⑫⑩口口
口口⑨口 |⑦-⑧⑨|
口⑧⑦口 |⑩-⑪⑫|
57
④口⑤口 |①-②③|
口口口③ |④-⑤⑥|
⑥口口①
②口口口

口⑧口口
⑧口⑨口
口⑨口⑩ |⑦-⑧-|
口口⑩⑦ |⑨-⑩-|
58
②②①口 |①---|
口①③① |②-③-|
口④①口 |--④-|
⑤口④③ |--⑤-|
59
口④口⑤ |①-②③|
口口③口 |④-⑤⑥|
口⑥口①
口②口口

口⑩⑧口
⑩⑨口⑧
口口⑨口 |⑦-⑧-|
口口口⑦ |⑨-⑩-|
60
④⑥⑥② |①-②-|
⑤口①③ |③-④-|
④口⑦② |⑤-⑥-|
口⑧⑧口 |⑦-⑧-|
61
口口口口 |①-②③|
口①②口 |④-⑤⑥|
口③口⑥
⑤口口④

口口口口
⑦⑩⑨口
口⑩⑨口 |⑦-⑧-|
口⑧⑧口 |⑨-⑩-|
62
②②①① |--①-|
口口口口 |②-③-|
③口口口
口③口口

⑦口口口
⑤⑦口⑥
口⑤⑥④ |④-⑤-|
口口④口 |⑥-⑦-|
63
②口口② |--①-|
口口口口 |----|
口④③口 |②---|
口①①口 |③-④-|
64
口③②口 |①-②③|
口⑤④口 |④⑤⑥-|
口口⑥口
①口口①

口口⑩⑩
⑦口口⑪
⑫口口⑧ |⑦⑧⑨-|
⑨口口口 |⑩-⑪⑫|
65
⑧口口⑦ |①-②③|
⑧②③⑦ |④⑤⑥-|
口④⑤口 |⑦---|
口⑥口① |⑧---|
66
口⑤口口 |①-②③|
⑤②口口 |④-⑤-|
口口③①
口④①口

口口⑨口
口口⑥⑨
口⑦⑪口 |⑥⑦⑧-|
⑩口口⑧ |⑨-⑩⑪|
67
口①口口 |①-②-|
口口③口 |③④⑤-|
②④口口
口②口⑤

⑦⑦⑥⑥
⑦口口⑥
口口口口 |⑥---|
口口口口 |⑦---|

不確定度: 0

最終更新:2018年07月16日 22:56