Shadow and Truth
ONE III NOTES

EXTREME

Level: 9
BPM: 121
Notes: 544

1
口口口口 |----|
口口口口 |----|
口口口口 |----|
口口口口 |----|
2
口口口口 |----|
口口口口 |----|
口口口口 |----|
口口口口 |----|
3
口口口口 |----|
口口口口 |----|
口口口口 |----|
口口口口 |----|
4
①④口口 |①---|
口②口口 |②---|
⑤口③口 |③--④|
口口口口 |-⑤--|
5
口口口口 |①---|
口口口口 |②---|
口口口口
口口②①

口口口口
口口⑤口
口口口口 |③--④|
口③口④ |-⑤--|
6
②口口③ |①-②-|
口口口口 |-③-④|
口①①口
口口口④

口⑤⑪口
⑨口⑥口
口⑦口⑩ |⑤⑥⑦⑧|
口口⑧口 |⑨⑩-⑪|
7
②口口④ |①---|
口③⑤口 |--②③|
②口口④ |-④⑤-|
①③⑤① |----|
8
口①口口 |--①-|
②口口口 |----|
②②口口 |----|
口②②口 |--②-|
9
②口①口 |①---|
口①口① |----|
口口①口 |----|
口口口口 |--②-|
10
口口②② |----|
①口口② |----|
①口口口 |--①-|
①①口口 |②---|
11
②④口口 |①-②-|
④②口口 |③④-⑤|
口口口③
⑤口①①

⑩口⑥⑧
口⑩⑧⑥
口口口口 |⑥-⑦⑧|
口⑦⑨口 |-⑨⑩-|
12
口①②口 |-①②③|
⑤口口口 |④-⑤⑥|
口③④⑥
口口口口

口口口口
口⑨⑧口
口⑩⑪口 |⑦-⑧⑨|
⑦⑨⑧口 |--⑩⑪|
13
①口口② |①-②③|
③⑥⑦口 |④⑤⑥⑦|
①口口④
⑤口口口

⑪口口口
口口口⑨
口⑫口口 |⑧-⑨⑩|
口⑧⑩口 |-⑪⑫-|
14
口①①④ |①②③④|
口③口口 |⑤⑥⑦⑧|
⑤口②⑥
⑦口口⑧

⑩口口口
口⑬⑨⑨
口⑪⑫口 |⑨-⑩⑪|
口口口口 |--⑫⑬|
15
③③口① |①-②-|
口口④口 |③④⑤-|
口⑤口①
②②口口

口口口口
⑨⑦⑩⑥
口⑪⑧口 |⑥-⑦⑧|
⑨口口⑥ |⑨-⑩⑪|
16
②②④① |①-②-|
口口口④ |③-④-|
③口口①
口③口口

口⑪口⑪
口⑤口口
口口⑧⑩ |⑤⑥⑦⑧|
⑦口⑨⑥ |⑨⑩⑪-|
17
⑩⑩④⑧ |-①②③|
①③⑫⑥ |④⑤⑥⑦|
⑤②⑨口 |⑧-⑨⑩|
⑦⑪⑪口 |-⑪-⑫|
18
⑦③④⑦ |①---|
③⑤⑥④ |②---|
②⑦⑦② |③-④-|
①⑤⑥① |⑤⑥-⑦|
19
口⑤口口 |-①②③|
口⑤口口 |④-⑤-|
①口口④
③口口②

⑧口⑥⑧
⑨口⑥口
⑨口口口 |⑥-⑦-|
⑨⑦⑦口 |⑧--⑨|
20
口口①口 |-①②③|
口口口② |④-⑤-|
口口③口
口⑤⑤④

⑦⑨⑧⑨
口⑥⑥口
口⑦口⑧ |⑥-⑦⑧|
口口口口 |---⑨|
21
口口口口 |-①②③|
①口⑤⑤ |④-⑤-|
口口②口
③口④④

口⑦⑧口
口⑨口口
口⑥⑩口 |⑥---|
口⑥口口 |⑦⑧⑨⑩|
22
②口口口 |--①-|
口④④③ |②③-④|
②口口口
①①口③

⑪⑦⑥口
⑪口口⑩
口⑤口口 |-⑤⑥⑦|
口⑨⑧口 |⑧⑨⑩⑪|
23
口③③① |-①②-|
⑤⑤②⑧ |③-④-|
口④⑥⑥ |⑤-⑥-|
⑦⑦④⑧ |⑦--⑧|
24
①口口口 |-①②③|
⑦⑤②口 |④⑤⑥⑦|
口③⑥口
口口④口

⑨⑪⑧⑫
口口⑫⑧
⑩口口⑪ |⑧-⑨⑩|
口⑩口口 |-⑪-⑫|
25
口口④口 |--①②|
⑤①口口 |③-④⑤|
口口②口
③口口口

⑪⑦⑪口
口口⑧口
口⑪口⑥ |⑥-⑦⑧|
口⑨口⑩ |⑨-⑩⑪|
26
口③口③ |-①-②|
②①④① |-③-④|
④口①③
②④②口

⑤⑧⑧⑧
⑦⑥口⑥
口⑤⑥口 |-⑤-⑥|
⑦口⑦⑤ |-⑦-⑧|
27
③口②② |----|
③④口② |----|
①④口口 |--①-|
①①口口 |②-③④|
28
口③口口 |-①②-|
口口②④ |③-④-|
③口②①
口口④①

⑦口口⑥
口⑤⑥口
口⑤⑥口 |⑤---|
⑤口口口 |⑥--⑦|
29
口⑥⑥⑥ |-①②③|
口②⑤⑥ |④⑤-⑥|
④口⑥③
口④⑥①

⑦口口口
⑦口口口
口口口⑧ |----|
⑨⑨口⑧ |⑦⑧-⑨|
30
口口①① |----|
口③②口 |①---|
口②③口 |②---|
④口口④ |③--④|
31
口⑤⑥口 |-①②③|
口口口口 |④-⑤⑥|
①口口②
口③④口

⑦口口口
口⑧口口
⑦口口口 |----|
⑨⑧口⑨ |⑦⑧-⑨|
32
口③④① |-①②-|
③口②④ |③-④-|
口口口①
口口②口

口口⑧⑥
口⑤⑥⑧
⑦⑤⑥口 |⑤---|
⑤⑦口口 |⑥-⑦⑧|
33
①⑥口⑥ |-①②③|
口口⑤口 |④⑤-⑥|
口口口口
③口④②

⑦口⑦口
口口口口
口口口口 |----|
口⑧口⑧ |-⑦-⑧|
34
口①口① |----|
③口口④ |-①-②|
③口口④ |----|
②口②口 |-③-④|
35
口口口口 |①---|
口口口口 |②---|
口②②口
口①口口

⑥③⑤⑤
⑥⑦③⑤
④⑦口口 |③-④-|
④④口口 |⑤-⑥⑦|
36
口③口口 |-①②-|
口口②④ |③-④-|
③口②①
口口④①

⑦口口⑥
口⑤⑥口
口⑤⑥口 |⑤---|
⑤口口口 |⑥--⑦|
37
口⑥⑥⑥ |-①②③|
口②⑤⑥ |④⑤-⑥|
④口⑥③
口④⑥①

⑦口口口
⑦口口口
口口口⑧ |----|
⑨⑨口⑧ |⑦⑧-⑨|
38
口口①① |----|
口③②口 |①---|
口②③口 |②---|
④口口④ |③--④|
39
口⑤⑥口 |-①②③|
口口口口 |④-⑤⑥|
①口口②
口③④口

⑦口口口
口⑧口口
⑦口口口 |----|
⑨⑧口⑨ |⑦⑧-⑨|
40
口③④① |-①②-|
③口②④ |③-④-|
口口口①
口口②口

口口口⑥
口⑤⑥⑦
口⑤⑥口 |⑤---|
⑤⑦口⑦ |⑥--⑦|
41
①③①口 |-①-②|
③④③口 |-③-④|
①②④②
④口②口

⑥⑧⑧⑤
口口口⑤
⑥⑦口⑦ |-⑤-⑥|
口⑤⑦⑥ |-⑦-⑧|
42
②口⑧⑧ |----|
口⑥①③ |---①|
④口⑦口 |②③④⑤|
口口口⑤ |⑥⑦-⑧|
43
口①②口 |----|
①口口② |----|
口口口口 |----|
口③③口 |①②-③|
44
②⑧⑧口 |----|
口口①③ |---①|
④口⑦口 |②③④⑤|
口⑥口⑤ |⑥⑦-⑧|
45
口口口口 |----|
口口口口 |----|
口口口口 |----|
口口口口 |----|
46
①⑤⑤② |-①②③|
口口口口 |④-⑤-|
口口口口
④口口③

⑨口口⑧
⑦⑩⑪口
⑦⑨⑧口 |⑥-⑦⑧|
⑩⑥⑥⑪ |⑨-⑩⑪|

不確定度: 1

最終更新:2017年08月19日 17:23