Morning Glory
(K)NoW_NAME

EXTREME

Level: 8
BPM: 220
Notes: 549

1
口口口口 |------|
口口口口 |------|
口口口口 |------|
口口口口 |------|
2
口口口口 |------|
口口口口 |------|
口口口口 |------|
口口口口 |------|
3
口口口口 |------|
口口口口 |------|
口口口口 |------|
口口口口 |------|
4
③口②⑥ |①-----|
⑤口口口 |②---③-|
口④口口 |④-----|
口①①口 |⑤---⑥-|
5
⑦口口口 |①---②-|
口②④口 |③---④-|
口口①口 |⑤-----|
③⑥⑥⑤ |⑥---⑦-|
6
⑥口口③ |①-----|
口②口口 |②---③-|
口①④① |④-----|
口口⑤口 |⑤---⑥-|
7
口口口口 |①---②-|
口④②① |③---④-|
口①口⑤ |⑤-----|
⑤⑥⑥③ |⑥-----|
8
①⑤口① |①---②③|
口口口口 |④-----|
②③④口 |⑤---⑥-|
⑥⑦口⑦ |----⑦-|
9
③口③口 |------|
口②口② |①-----|
①口①口 |②-----|
口口口口 |③-----|
10
口①口① |------|
③口③口 |①---②-|
口口口口 |----③-|
口②口② |------|
11
①②口口 |①-----|
口口④③ |②-----|
①②口口 |③-----|
口口④③ |④-----|
12
⑤⑦口② |①---②-|
口口口口 |③---④-|
③口口④ |⑤-----|
①①⑥口 |⑥---⑦-|
13
口口③口 |①---②-|
④口口口 |③---④-|
口②①口 |⑤-----|
⑥⑥口⑤ |⑥-----|
14
①①口② |①-----|
口口口③ |②-----|
口口口口 |③-----|
口口④口 |④-----|
15
口③口口 |①-----|
口口②口 |②-----|
口①口口 |③-----|
口口口④ |④-----|
16
⑦口①① |①---②-|
②口口⑤ |③---④-|
④口口③ |⑤-----|
口⑥口口 |⑥---⑦-|
17
口口口③ |①---②-|
口④口口 |③---④-|
口口⑤口 |⑤-----|
②⑥⑥① |⑥-----|
18
②①①④ |①-----|
③口口④ |②-----|
口口口口 |③-----|
口口口口 |④-----|
19
③③④口 |①-----|
口口口④ |②-----|
①口口口 |③-----|
①口②② |④-----|
20
③口④④ |①-----|
口口①口 |②-----|
②口口口 |③-----|
口②口口 |④-----|
21
口口④口 |①-----|
口口口口 |②-----|
③口口口 |③-----|
②口①① |④-----|
22
口②④④ |①-----|
②口口口 |②-----|
口口口① |③-----|
③③①口 |④-----|
23
口④⑤口 |①-----|
口③口口 |②-----|
口口②口 |③-----|
口口口① |----④⑤|
24
②口口① |①-----|
口口口口 |------|
口口口口 |------|
口口口口 |②-----|
25
口口口口 |①-----|
①口口口 |②-----|
②口口口 |------|
口口口口 |------|
26
②④口⑤ |①-----|
⑥口③口 |②---③-|
④口口口 |④-----|
口口①① |⑤---⑥-|
27
口口①口 |①---②-|
口④口① |③---④-|
口口⑤③ |⑤-----|
②⑥③⑤ |⑥-----|
28
①①口⑤ |①-----|
②④③口 |②---③-|
⑥口口口 |④-----|
④口口口 |⑤---⑥-|
29
口口①口 |①---②-|
④口口① |③---④-|
口②⑤③ |⑤-----|
⑥⑥③⑤ |⑥-----|
30
⑤①①② |①-----|
口口④口 |②---③-|
口③⑥④ |④-----|
口口口口 |⑤---⑥-|
31
③口口② |①-----|
口①口③ |②-----|
①口口口 |------|
口口③口 |③-----|
32
④②①② |①-----|
③口口口 |②-----|
②口口① |③-----|
口③口口 |④-----|
33
④口③② |①-----|
口②①口 |②-----|
口②①口 |③-----|
口口口口 |④-----|
34
口⑦口③ |①---②-|
②口口④ |③---④-|
口⑥⑥口 |⑤---⑥-|
①⑤口口 |----⑦-|
35
口口②口 |------|
口⑤口口 |①---②-|
③口口口 |③-----|
①口④口 |④---⑤-|
36
②口口① |------|
口口口口 |①-----|
口口口口 |------|
口口口口 |②-----|
37
②口口① |------|
口口②口 |①-----|
口口口口 |------|
口口②口 |②-----|
38
④②①② |①-----|
②口口① |②-----|
③③④④ |③-----|
口口口口 |④-----|
39
口口③② |①-----|
口口口③ |②-----|
口口口口 |------|
口①①口 |③-----|
40
口①⑥口 |①-----|
①③⑤口 |②---③-|
口口④口 |④---⑤-|
②②口口 |----⑥-|
41
口口口① |------|
口②口口 |①-----|
口口口③ |②---③-|
①①④口 |④-----|
42
④②口② |①-----|
口口⑤口 |②-----|
口①①口 |③-----|
③口口④ |④---⑤-|
43
④②①② |①-----|
②口口口 |②-----|
口口口③ |③-----|
口口④口 |④-----|
44
④口口② |①-----|
②①口口 |②-----|
口①③口 |③-----|
口①口口 |④-----|
45
④②口② |①-----|
②口口① |②-----|
口口口口 |③-----|
口口①③ |④-----|
46
④口口② |①-----|
口口口口 |②-----|
③口口① |③-----|
口③①口 |④-----|
47
④③①② |①-----|
③④口① |②-----|
口口口口 |③-----|
口口口口 |④-----|
48
④④③③ |①-----|
④④③③ |②-----|
②②①① |③-----|
②②①① |④-----|
49
口口③口 |①-----|
口口口③ |②-----|
③②口口 |③-----|
口③①① |------|
50
口口③① |①-----|
口①口口 |②-----|
口口①③ |③-----|
口口④② |④-----|
51
①③口口 |①-----|
口口口口 |②-----|
③①口口 |③-----|
②④口口 |④-----|
52
口口口① |①-----|
口口②④ |②-----|
口③口口 |③-----|
口口口④ |④-----|
53
③④①口 |①-----|
④②口口 |②-----|
③口①口 |③-----|
口②口口 |④-----|
54
④口④口 |①-----|
口口口口 |②-----|
口③口① |③-----|
②口①口 |④-----|
55
口口口③ |①-----|
口①③① |②-----|
②口②口 |③-----|
口口口④ |④-----|
56
③口①⑤ |①-----|
口口口① |②-----|
口口口⑤ |③---④-|
②④口口 |----⑤-|
57
口①①口 |------|
口口口③ |①---②-|
口口口口 |③-----|
②口④④ |④-----|
58
口④口口 |①-----|
①①口口 |②-----|
①④③口 |③-----|
口②口口 |④-----|
59
③口口① |①---|
④口②⑦ |②---|
⑤口口① |③④⑤⑥|
⑥口口口 |⑦---|
60
口口③① |①-----|
口①口口 |②-----|
口口①③ |③-----|
口口④② |④-----|
61
①③口口 |①-----|
口口口口 |②-----|
③①口口 |③-----|
②④口口 |④-----|
62
口口①① |①-----|
②口口口 |------|
口口口口 |------|
②口①① |②-----|
63
④①④③ |①-----|
口口②口 |②-----|
口①口③ |③-----|
口口②口 |④-----|
64
口口⑤④ |①-----|
口②④⑤ |②-----|
口口③口 |③-----|
口①口① |④---⑤-|
65
④口口口 |①-----|
③口口口 |②-----|
②口口口 |③-----|
①口口口 |④-----|
66
口口②② |①-----|
口口口口 |------|
口①①① |②-----|
口口口③ |③-----|
67
口②口口 |①-----|
口③④口 |②-----|
①⑤⑥口 |③-④-⑤-|
口⑦⑧口 |⑥-⑦-⑧-|
68
①口①口 |①-----|
口口口口 |------|
口口口口 |------|
②口口② |②-----|
69
口②①④ |①-----|
③口④口 |②-----|
②口口① |③---④-|
口口③⑤ |----⑤-|
70
④④口口 |①-----|
口口⑥② |②---③-|
口口⑤③ |④-----|
①①口口 |⑤---⑥-|
71
④④口口 |①-----|
口口⑥② |②---③-|
口口⑤③ |④-----|
①①口口 |⑤---⑥-|
72
④④口口 |①-----|
口口⑥② |②---③-|
口口⑤③ |④-----|
①①口口 |⑤---⑥-|
73
③③②② |①-----|
口口口口 |②-----|
口④④口 |③-----|
①①口口 |④-----|
74
口口④④ |①-----|
②⑥口口 |②---③-|
③⑤口口 |④-----|
口口①① |⑤---⑥-|
75
口口④④ |①-----|
②⑥口口 |②---③-|
③⑤口口 |④-----|
口口①① |⑤---⑥-|
76
口口④④ |①-----|
②⑥口口 |②---③-|
③⑤口口 |④-----|
口口①① |⑤---⑥-|
77
③③口口 |①---②-|
口口①① |----③-|
口口②② |----④-|
口口④④ |------|
78
口②①① |①-----|
口口③① |------|
①④口口 |----②③|
①①口⑤ |④---⑤-|
79
①口口口 |①-----|
③③口口 |②-----|
口口②② |③-----|
口口口口 |------|
80
①①①② |①-----|
④口口② |②-----|
④口口② |③-----|
④③③③ |④-----|
81
口口①口 |------|
口①①① |------|
口①①① |①-----|
口口口口 |------|

不確定度: 0

最終更新:2018年07月16日 22:58