ようこそジャパリパークへ
どうぶつビスケッツ×PPP

EXTREME

Level: 8
BPM: 170
Notes: 494

1
口口口口 |----|
口口口口 |----|
口口口口 |----|
口口口口 |----|
2
口口口口 |----|
口口口口 |----|
口口口口 |----|
口口口口 |----|
3
口口口口 |----|
口口口口 |----|
口口口口 |----|
口口口口 |----|
4
口④①口 |①-②-|
④口口① |③-④-|
口口口口
②口口③

⑥口⑦⑤
口口⑦口
⑦口⑦口 |--⑤-|
口⑦口口 |⑥-⑦-|
5
口③口③ |--①-|
④口口口 |②-③-|
口②口⑤ |--④-|
⑥口口① |⑤-⑥-|
6
③③口② |①---|
口④③② |②---|
④①②口 |③---|
④口①① |④---|
7
③口③② |①---|
④口口口 |②---|
口口口② |③---|
④①口① |④---|
8
口口口口 |①-②③|
口④③② |④-⑤⑥|
⑤⑥口口
口①①口

口⑩⑨⑧
口口口口
口口⑦口 |⑦-⑧⑨|
⑪⑫口口 |⑩-⑪⑫|
9
②口口口 |①-②-|
口口口③ |③-④-|
④口口口
口口①口

口口口口
口⑦⑥口
口⑨⑧口 |⑤-⑥⑦|
口⑪⑩⑤ |⑧⑨⑩⑪|
10
口口口口 |①-②-|
②口口① |③-④-|
④口口③
口口口口

口⑥⑦口
⑩⑧⑨⑪
口口⑤口 |⑤-⑥⑦|
口口口口 |⑧⑨⑩⑪|
11
②②②② |①---|
口口口口 |----|
口②②口 |②---|
口①①口 |----|
12
⑤⑤⑦⑦ |①-②-|
口口④口 |③-④-|
口③口⑥ |⑤--⑥|
①①②口 |--⑦-|
13
⑤口口口 |--①-|
口①②口 |②-③-|
⑥③口口 |④--⑤|
口口④④ |--⑥-|
14
口口①口 |①-②-|
口②口口 |③-④-|
口口③口 |----|
口④口口 |----|
15
口①口口 |①-②-|
口口②口 |③-④-|
口③口口 |----|
口口④口 |----|
16
⑥口④口 |--①-|
口③口口 |②-③-|
⑤口②口 |④--⑤|
口①口口 |--⑥-|
17
口口口⑧ |--①②|
口③②① |③-④⑤|
口口口⑦ |⑥--⑦|
④⑤⑥口 |--⑧-|
18
口①口口 |①-②-|
口口②口 |③-④-|
口③口口 |----|
口口④口 |----|
19
口口口口 |①---|
口③口③ |②---|
②口②口 |③---|
口①口① |----|
20
①②口口 |①-②-|
③④口口 |③-④-|
⑤⑥口口 |⑤-⑥-|
⑦口口⑧ |⑦-⑧-|
21
口口①② |①-②-|
口口③④ |③-④-|
口口⑤⑥ |⑤-⑥-|
口口⑦口 |⑦---|
22
②口⑥⑥ |①---|
④⑤④⑥ |②-③-|
④④④口 |④---|
①④口③ |⑤-⑥-|
23
③③口口 |--①-|
③口口口 |--②-|
②④④① |--③-|
②②①① |--④-|
24
口口口口 |----|
①口口② |--①-|
口口口口 |②---|
口口口口 |----|
25
②口口③ |①---|
口口口口 |--②-|
口④口口 |③---|
口①①口 |--④-|
26
④口口④ |①---|
口②③口 |②-③-|
口口①口 |--④-|
⑤口口⑤ |--⑤-|
27
⑦⑧⑨口 |--①-|
⑥③⑩② |②--③④⑤|
⑤④⑪口 |⑥⑦⑧⑨⑩⑪|
口①口口 |----|
28
口口口口 |----|
口③口口 |①---|
口③②口 |②---|
口③②① |③---|
29
口④①口 |①-②-|
④口口① |③-④-|
口口口口
②口口③

⑥口⑦⑤
口口⑦口
⑦口⑦口 |--⑤-|
口⑦口口 |⑥-⑦-|
30
口③口③ |--①-|
④口口口 |②-③-|
口②口⑤ |--④-|
⑥口口① |⑤-⑥-|
31
③③口② |①---|
口④③② |②---|
④①②口 |③---|
④口①① |④---|
32
⑥口①⑦ |①-②-|
②口口口 |③-④-|
口口⑤③ |⑤-⑥-|
口④口口 |⑦---|
33
⑥④①⑤ |①-②-|
④口口① |③-④-|
口口口⑦ |--⑤-|
②口⑦③ |⑥-⑦-|
34
口口口④ |--①-|
⑤③口口 |②-③-|
③③③⑥ |--④-|
①③口② |⑤-⑥-|
35
④③口③ |①---|
口口口② |②---|
④口口口 |③---|
①口①② |④---|
36
口③③口 |①---|
④④③② |②---|
④①②② |③---|
口①①口 |④---|
37
口口口口 |①---|
口③口口 |----|
口口口口 |--②-|
②①①口 |--③-|
38
②口口口 |①---|
口口①③ |②---|
④口口口 |③---|
口口口口 |④---|
39
口口口口 |①--②|
口④③口 |--③-|
口②⑤口 |④--⑤|
口⑥①口 |--⑥-|
40
口口口① |①---|
②③口口 |--②③|
口口口口
口口口口

口口口⑤
口口④口
口口口口 |④---|
口口口口 |--⑤-|
41
①口口口 |①---|
口⑤④口 |②-③-|
口⑤④口 |--④-|
③口口② |--⑤-|
42
口口口① |①---|
口④⑤口 |②-③-|
口④⑤口 |--④-|
②口口③ |--⑤-|
43
①口④口 |①---|
口口口口 |②-③-|
口⑤口口 |--④-|
③口口② |--⑤-|
44
③口口口 |①---|
口②②口 |----|
口口①口 |②---|
口口口口 |--③-|
45
口口口① |①-②③|
口口⑥⑤ |④-⑤⑥|
②③④口
口口口口

⑧口口⑨
口⑦口口
口口口口 |⑦-⑧-|
口⑩口口 |⑨-⑩-|
46
②②②② |①---|
口口口口 |----|
口②②口 |②---|
①口口① |----|
47
口⑥口口 |①-②-|
①②③④ |③-④-|
口口口口 |⑤---|
口⑤口口 |⑥---|
48
口口⑤口 |①-②-|
口口口口 |③-④-|
④③②① |⑤---|
口口⑥⑥ |⑥---|
49
口②②口 |①---|
口③口④ |②---|
口③口④ |③---|
①①口口 |④---|
50
②口①③ |①-②-|
口口①口 |③-④-|
①④①口
口①口口

口⑥口口
口口口口
口口口⑦ |⑤-⑥-|
口⑧口⑤ |⑦-⑧-|
51
口口口口 |①-②-|
①②③④ |③-④-|
口口口口
口口口口

⑥口口口
口⑧口口
口口口口 |⑤-⑥-|
⑤⑦口口 |⑦-⑧-|
52
口口口⑥ |①-②-|
口口⑧口 |③-④-|
④③②① |⑤-⑥-|
口口⑦⑤ |⑦-⑧-|
53
口口口口 |①---|
②口口② |②---|
口①①口
口口口口

口④④口
口口口口
口⑤口口 |③---|
③口口③ |④-⑤-|
54
②④④口 |①---|
口口口口 |--②-|
②口①口 |③---|
口③③口 |④---|
55
口口口口 |①-②-|
①②③④ |③-④-|
口口口口
口口口口

⑥口口口
口⑧口口
口口口口 |⑤-⑥-|
⑤⑦口口 |⑦-⑧-|
56
口口口⑥ |①-②-|
口口⑧口 |③-④-|
④③②① |⑤-⑥-|
口口⑦⑤ |⑦-⑧-|
57
口②②口 |①---|
口③口④ |②---|
口③口④ |③---|
①①口口 |④---|
58
②口①③ |①-②-|
口口①口 |③-④-|
①④①口
口①口口

口⑥口口
口口口口
口口口⑦ |⑤-⑥-|
口⑧口⑤ |⑦-⑧-|
59
口口口口 |①-②-|
①②③④ |③-④-|
口口口口
口口口口

⑥口口口
口⑧口口
口口口口 |⑤-⑥-|
⑤⑦口口 |⑦-⑧-|
60
口口口⑥ |①-②-|
口口⑧口 |③-④-|
④③②① |⑤-⑥-|
口口⑦⑤ |⑦-⑧-|
61
口口口口 |①---|
②口口② |②---|
口①①口
口口口口

口④④口
口口口口
口⑤口口 |③---|
③口口③ |④-⑤-|
62
②③③口 |①---|
口口口口 |--②-|
②口①口 |③---|
口④④口 |④---|
63
②②口口 |①---|
口口口口 |②---|
口①①口
口口口口

口口⑤口
口④⑤口
⑤口⑤口 |③---|
口⑤③③ |④-⑤-|
64
①①口③ |--①-|
③口口口 |②---|
口口口③ |③---|
③口②② |----|

不確定度: 0

最終更新:2018年07月16日 23:03