ガヴリールドロップキック
ガヴリール(CV:富田美憂)、ヴィーネ(CV:大西沙織)、サターニャ(CV:大空直美)、ラフィエル(CV:花澤香菜)

EXTREME

Level: 9
BPM: 168
Notes: 537

1
口口口口 |----|
口口口口 |----|
口口口口 |----|
口口口口 |----|
2
口口口口 |----|
口口口口 |----|
口口口口 |----|
口口口口 |----|
3
口⑩⑪⑫ |①②③-|
口⑦⑧⑨ |④⑤⑥-|
口④⑤⑥ |⑦⑧⑨-|
口①②③ |⑩⑪⑫-|
4
口口口口 |①---|
口口口口 |--②-|
口②口口
②①①口

⑤口口④
⑥⑤④口
口口③口 |③-④-|
口⑥口③ |⑤-⑥-|
5
③口口③ |--①-|
口③③① |--②-|
③②②③ |③---|
口口①口 |----|
6
口口口口 |①---|
③口口① |②---|
口口口口 |③---|
④①③② |④---|
7
口口口口 |①---|
口①口口 |--②-|
②口①③ |----|
口③②口 |③---|
8
口①①口 |①---|
①口口① |----|
口口口口 |②---|
口口口② |----|
9
①①口口 |①---|
口⑤口④ |②---|
③口⑥口 |③-④-|
②②口口 |⑤⑥--|
10
口口①① |①---|
④⑥口⑤ |②---|
口口⑦③ |③-④-|
口口②② |⑤-⑥⑦|
11
③⑪②⑫ |①②③④|
⑦⑮⑥⑩ |⑤⑥⑦⑧|
①⑨口⑭ |⑨⑩⑪⑫|
⑤⑬④⑧ |⑬⑭⑮-|
12
②⑤①⑤ |①-②-|
⑥口口口 |③④-⑤|
②④①⑦ |--⑥-|
⑧口③口 |⑦-⑧-|
13
③口口口 |①②-③|
口口②① |-④--|
④⑦⑥⑤ |⑤⑥⑦-|
口⑩⑨⑧ |⑧⑨⑩-|
14
口⑥⑤① |①-②-|
②④③口 |③④⑤⑥|
口口口口
口口口口

口口口⑩
口口口⑧
口⑨口⑦ |-⑦⑧-|
口口口口 |⑨-⑩-|
15
口口⑫⑪ |①-②③|
口⑩⑨⑧ |④-⑤⑥|
口⑦⑥⑤ |⑦-⑧⑨|
①④③② |⑩-⑪⑫|
16
③①口口 |①---|
①③口口 |②---|
②口③② |③---|
口口口③ |----|
17
口口③① |①---|
④口口口 |--②-|
口②⑤口 |③-④-|
⑥口口口 |⑤-⑥-|
18
③②口口 |①---|
④④口口 |②-③-|
口口口口 |④---|
口口①口 |----|
19
口⑥⑥口 |①---|
⑤口①③ |--②-|
口①口① |③-④-|
②口①④ |⑤-⑥-|
20
口口口⑤ |--①-|
④口②口 |②-③-|
口③口① |④---|
口口口⑤ |⑤---|
21
①③口口 |①---|
口口口④ |--②-|
口⑤②口 |③-④-|
口口口⑥ |⑤-⑥-|
22
口口②③ |①---|
口口④④ |②-③-|
口口口口 |④---|
口①口口 |----|
23
口⑤⑤④ |①---|
③③②口 |--②-|
口口口口 |③---|
①①口口 |④-⑤-|
24
口⑦⑥口 |--①-|
口⑨⑧口 |②---|
⑤口④③ |③④-⑤|
②口口① |⑥⑦⑧⑨|
25
③口口① |①---|
口口④口 |②---|
口⑤口口 |③---|
口②②口 |④-⑤-|
26
口口②口 |①-②-|
口①口③ |③-④-|
口口④口 |⑤---|
⑥⑤⑤⑥ |⑥---|
27
①②②③ |①-②-|
口③①口 |--③-|
①口口③
口口口口

口⑦⑦口
⑥口口⑥
口④④口 |④-⑤-|
口⑤⑤口 |⑥-⑦-|
28
口口⑤口 |--①-|
⑤③③④ |②-③-|
②④口① |④---|
②口口① |⑤---|
29
①口⑤① |①---|
口⑥口④ |②-③-|
⑦②③口 |④-⑤-|
口口口口 |⑥-⑦-|
30
⑥⑤⑤⑥ |①-②-|
口口④口 |③-④-|
口③②口 |⑤---|
口①口口 |⑥---|
31
②口口② |①---|
口②②口 |----|
②口口② |--②-|
①口口① |----|
32
口口口口 |----|
口口口口 |----|
口口口口 |----|
④③②① |①②③④|
33
口③⑤口 |①-②-|
③⑥④⑤ |③---|
①口②口 |④-⑤-|
口口口口 |--⑥-|
34
口①③口 |①---|
①口②③ |②-③-|
口口口口
口口口口

口⑤口口
⑤④口口
口口口口 |--④-|
口口口口 |⑤---|
35
口口②口 |①-②-|
口③①② |--③-|
口口口口
口口口口

口④⑥口
④口⑤⑥
口口口口 |④---|
口口口口 |⑤-⑥-|
36
口口口口 |①---|
③③③⑤ |②---|
②②口口 |③-④-|
①口④⑥ |⑤-⑥-|
37
口③⑤口 |①-②-|
③⑥④⑤ |③---|
①口②口 |④-⑤-|
口口口口 |--⑥-|
38
口①③口 |①---|
①口②③ |②-③-|
口口口口
口口口口

口⑤口口
⑤④口口
口口口口 |--④-|
口口口口 |⑤---|
39
⑧⑦⑧口 |①-②-|
⑥⑤⑥口 |③-④-|
④③④口 |⑤-⑥-|
②①②口 |⑦-⑧-|
40
口⑧⑦⑧ |①-②-|
口⑥⑤⑥ |③-④-|
口④③④ |⑤-⑥-|
口②①② |⑦-⑧-|
41
⑥口口⑥ |①---|
④口⑤口 |②-③-|
②口口④ |④-⑤-|
①①③口 |⑥---|
42
⑤口②口 |①---|
④口③口 |②-③-|
②口口口 |④---|
①口口① |⑤---|
43
口③口③ |①---|
②③②① |--②-|
②①口① |----|
口口口口 |③---|
44
口口口口 |--①-|
口口口① |----|
口①口口
口口①口

口口③口
②口口③
口③②口 |②---|
口②口口 |--③-|
45
口②口口 |----|
②口①口 |①---|
口②口① |--②-|
口口①口 |----|
46
②口①② |①---|
口②②① |②---|
口口①口 |----|
口口口口 |----|
47
⑤⑨④⑦ |①-②③|
口③口口 |④-⑤-|
②口口① |⑥-⑦-|
⑧口⑥口 |⑧-⑨-|
48
口口①④ |①--②|
⑤①④② |--③-|
③⑤②⑥ |④--⑤|
④③⑥① |--⑥-|
49
口口①口 |①--②|
口①口② |--③-|
③口②口
口③口①

口口口口
口口口口
口⑦口⑤ |④-⑤⑥|
④口⑥⑧ |⑦-⑧-|
50
②口②口 |①---|
②②②① |②---|
②口②口 |--③-|
④④③③ |④---|
51
口口口① |①--②|
口口①② |--③-|
①②②③
口口③口

⑤口④⑥
口④口口
口口口口 |④-⑤-|
口口口口 |⑥---|
52
④①口口 |①--②|
②④①⑤ |--③-|
⑥②⑤③ |④--⑤|
①⑥③④ |--⑥-|
53
口①口口 |①--②|
②口①口 |--③-|
口②口③
①口③口

口口口口
口口口口
⑤口⑦口 |④-⑤⑥|
⑧⑥口④ |⑦-⑧-|
54
口②口② |①---|
①②②② |②---|
口②口② |--③-|
③③④④ |④---|
55
⑥④③⑤ |①--②|
①口口② |--③-|
口②①口 |④-⑤-|
口③④口 |⑥---|
56
口口口⑥ |①--②|
口④口⑤ |③-④-|
口口②③ |⑤---|
⑥口口① |⑥---|
57
⑤③①口 |①--②|
⑥②口口 |③-④-|
口④口口 |⑤---|
口口口⑥ |⑥---|
58
④③①② |①---|
口①③口 |②---|
①②④③ |③---|
②口口④ |④---|
59
口口⑫⑥ |①②③-|
①⑦⑪⑤ |④⑤⑥-|
②⑧⑩④ |⑦⑧⑨-|
③⑨口口 |⑩⑪⑫-|
60
口口口③ |----|
口口口口 |①---|
①口口② |②---|
口口口口 |③---|
61
①口口口 |①---|
口口口口 |②---|
②口口③ |③---|
口口口口 |----|
62
口口口口 |①---|
②②①① |②---|
①①②② |----|
口口口口 |----|

不確定度: 1

最終更新:2017年08月19日 17:22