Claidheamh Soluis-光の剣- feat. はるの
猫大樹

EXTREME

Level: 9
BPM: 160
Notes: 806

1
口口口口 |----|
口口口口 |----|
口口口口 |----|
口口口口 |----|
2
②口②口 |----|
口口口口 |----|
口口口口 |①---|
口①口① |②---|
3
口口口④ |①-②-|
⑤①口口 |③-④-|
口③②⑥ |⑤-⑥-|
⑦口口口 |⑦---|
4
③口口③ |①---|
口口口口 |--②-|
口①②口 |----|
口②①口 |③---|
5
口④口口 |①-②-|
口③口口 |③-④-|
口口②口
口口①口

口口口口
口口口⑤
口口⑦⑥ |⑤---|
口口⑥⑦ |⑥-⑦-|
6
①④⑤① |①-②③|
⑥②③⑦ |④⑤⑥⑦|
口口口口
口口口口

⑫口口⑫
口口口口
⑬口口⑬ |⑧⑨⑩⑪|
⑧⑨⑩⑪ |⑫-⑬-|
7
口口④口 |①-②-|
⑤①口口 |③-④-|
口③②⑥ |⑤-⑥-|
⑦口口口 |⑦---|
8
③口口③ |①---|
口口口口 |--②-|
口①②口 |----|
口②①口 |③---|
9
口④口口 |①-②-|
口③口口 |③-④-|
口口②口
口口①口

口口口⑤
口口口口
口口⑦⑥ |⑤---|
口口⑥⑦ |⑥-⑦-|
10
⑪⑩⑨⑧ |①-②③|
②③④⑤ |④⑤⑥-|
口⑥口口 |⑦-⑧⑨|
①⑫⑦口 |⑩⑪⑫-|
11
口口口④ |①-②-|
⑤①口口 |③-④-|
口③②⑥ |⑤-⑥-|
⑦口口口 |⑦---|
12
③口口③ |①---|
口口口口 |--②-|
口①②口 |----|
口②①口 |③---|
13
口④口口 |①-②-|
口③口口 |③-④-|
口口②口
口口①口

口口⑤口
口口口口
口口⑦⑥ |⑤---|
口口⑥⑦ |⑥-⑦-|
14
①④⑤① |①-②③|
⑥②③⑦ |④⑤⑥⑦|
口口口口
口口口口

⑫口口⑫
口口口口
⑬口口⑬ |⑧⑨⑩⑪|
⑧⑨⑩⑪ |⑫-⑬-|
15
口口④口 |①-②-|
⑤①口口 |③-④-|
口③②⑥ |⑤-⑥-|
⑦口口口 |⑦---|
16
③口口③ |①---|
口口口口 |--②-|
口①②口 |----|
口②①口 |③---|
17
口④口口 |①-②-|
口③口口 |③-④-|
口口②口
口口①口

口口口口
口口⑤口
口口⑦⑥ |⑤---|
口口⑥⑦ |⑥-⑦-|
18
⑪⑩⑨⑧ |①-②③|
②③④⑤ |④⑤⑥-|
口⑥口口 |⑦-⑧⑨|
①⑫⑦口 |⑩⑪⑫-|
19
口⑦口口 |①-②-|
⑥口口③ |③-④-|
口⑤②口 |⑤-⑥-|
④口口① |⑦---|
20
口口口口 |①---|
口口②① |--②-|
口口口口
口口②①

口口口口
口口口③
口口口口 |----|
口口口③ |③---|
21
①口口⑤ |①-②-|
⑦②⑥口 |③-④-|
口口口③ |⑤---|
⑤口④口 |⑥-⑦-|
22
⑤口④口 |①②③④|
口③口口 |⑤-⑥-|
⑥口②口
口①口口

口⑪口⑦
口口⑧口
口⑨口⑪ |⑦⑧⑨⑩|
⑩⑬⑫口 |⑪-⑫⑬|
23
④口口口 |①-②-|
口⑤口③ |③-④-|
⑥口②口 |⑤-⑥-|
口⑦口① |⑦---|
24
口③③口 |①---|
口口口口 |--②-|
②口口① |----|
①口口② |③---|
25
⑤口口⑤ |①-②-|
口口口口 |③-④-|
口②④口 |⑤---|
①⑥⑦③ |⑥-⑦-|
26
⑧⑯①⑮ |①②③④|
⑩②⑦⑨ |⑤⑥⑦⑧|
⑫⑥③⑪ |⑨⑩⑪⑫|
④⑭⑬⑤ |⑬⑭⑮⑯|
27
④口⑤⑧ |①②③④|
⑧⑥③⑤ |⑤-⑥-|
口②⑥口 |⑦-⑧-|
口⑨⑦① |--⑨-|
28
①⑤⑥口 |①②③④|
口⑦②口 |⑤⑥⑦⑧|
口③口口
口口⑧④

口口口⑩
⑩口口口
口⑫⑨口 |⑨-⑩-|
口⑪口口 |--⑪⑫|
29
①③②⑥ |①--②|
口⑤④① |③④⑤⑥|
口口口口
口口口口

⑩口口口
⑦口口⑩
口口口⑧ |⑦⑧⑨-|
口⑨⑨口 |⑩---|
30
⑩⑧⑦⑨ |①②③④|
口⑥⑤口 |⑤⑥⑦⑧|
口④③口 |⑨⑩⑪-|
②⑪⑪① |----|
31
⑨⑤口⑥ |①②③④|
⑤③④⑨ |⑤-⑥-|
口①②口 |⑦-⑧-|
⑥⑧口⑦ |⑨---|
32
口⑥⑤⑪ |①②③④|
⑪②①⑨ |⑤⑥⑦⑧|
⑧④③⑦ |⑨-⑩-|
口口⑩口 |⑪---|
33
⑦⑤⑥⑫ |①②③④|
⑫③④⑧ |⑤⑥⑦⑧|
⑨①②口 |⑨⑩⑪-|
口⑪口⑩ |⑫---|
34
⑧②⑨⑫ |①②③④|
⑫口③⑤ |⑤⑥⑦⑧|
⑥⑩口① |⑨⑩⑪⑫|
④口⑦⑪ |----|
35
口③④口 |①---|
口口②口 |②---|
口口口① |③---|
口口口口 |④---|
36
口⑤口① |①---|
口④口口 |----|
口③口口 |②-③-|
口②口口 |④-⑤-|
37
口口口口 |①---|
④口口口 |②---|
口口口③ |③---|
②口①口 |④---|
38
口口⑤① |①---|
口口④口 |----|
口口③口 |②-③-|
口口②口 |④-⑤-|
39
口口口④ |①---|
③口口口 |②---|
口口口② |③---|
口①口口 |④---|
40
①口口口 |①---|
口口口口 |----|
口②口口 |②---|
口口③口 |③---|
41
①口口① |①---|
口口口口 |--②-|
口②口口
②口口口

口④口④
口口口口
③口口口 |--③-|
口③口口 |④---|
42
③口③口 |①---|
⑤①⑤① |--②-|
口口④② |③-④-|
口口②④ |⑤---|
43
③口口① |①---|
口口口口 |--②-|
②①③④ |③-④-|
口②④口 |----|
44
口①①口 |①---|
口口口口 |--②-|
口口口②
口口②口

口口④口
口口口口
口口③口 |--③-|
④口口③ |④---|
45
①口口口 |①---|
口口口① |--②-|
口口③② |--③-|
口口②③ |----|
46
口口①口 |①---|
口口口① |--②-|
②口口口
口②口口

口口口④
口口口⑤
口③口⑥ |--③-|
③口口⑦ |④⑤⑥⑦|
47
①①①口 |①---|
④口②口 |②---|
口⑤③口 |③---|
口口④口 |④-⑤-|
48
口口⑥口 |①---|
口⑤①⑤ |②---|
②口④口 |③-④-|
①③口③ |⑤-⑥-|
49
③①口① |①---|
口④②口 |②---|
口口口口 |③---|
口口③口 |④---|
50
④口口① |①---|
口口②口 |②---|
口③口口 |③---|
口①口④ |④---|
51
口口⑤① |①---|
口口②⑤ |②---|
口③口口 |③---|
①口④口 |④-⑤-|
52
②①口③ |①---|
①③②口 |②---|
口②③口 |③---|
口④④口 |④---|
53
④①③口 |①---|
口口口口 |②-③-|
口②②口 |----|
③口④① |④---|
54
口口口① |①---|
口口④口 |②---|
口③②口 |③---|
口①口口 |④---|
55
①口口口 |①---|
口①口② |②---|
口口①③ |③---|
口口口④ |④---|
56
③口③① |①---|
②③①口 |②---|
口①口④ |③---|
口口口口 |④---|
57
③口口口 |①---|
口②②口 |②-③-|
口口①口
口①③①

口口口④
口口口口
口口口口 |----|
口④口口 |④---|
58
③①①口 |①---|
口③⑥口 |②-③-|
口⑤④口 |④---|
②口口④ |⑤-⑥-|
59
④①④① |①---|
口②口口 |②-③-|
口口口口 |----|
③口③口 |④---|
60
口口口口 |①---|
口①口① |②---|
②口②口 |③---|
④③④③ |④---|
61
口①口① |①---|
口口口口 |②---|
口②口④ |③---|
口口③口 |④---|
62
⑪口⑩口 |①-②-|
③⑨⑧口 |③-④⑤|
②⑦⑥口 |⑥⑦⑧⑨|
①⑤④口 |⑩-⑪-|
63
口②口③ |①---|
⑥口⑥② |②-③-|
②口⑦⑤ |④-⑤-|
①④②① |⑥-⑦-|
64
②③⑧口 |①-②-|
口⑦口⑦ |③-④-|
④口⑥口 |⑤-⑥-|
①⑤①⑤ |⑦-⑧-|
65
⑤①口① |①-②-|
⑧口⑤口 |③-④-|
⑥③⑦② |⑤-⑥-|
③④④⑦ |⑦-⑧-|
66
④口①② |①-②-|
口①口① |③-④-|
口口口口
口③口口

口口⑦口
口⑦口口
⑦口口口 |⑤-⑥-|
⑥口⑤⑧ |⑦-⑧-|
67
口①口口 |①-②-|
口口①口 |③-④-|
口口②①
口③④口

口口口⑧
⑥口⑧口
口⑤口⑦ |⑤-⑥-|
口口口口 |⑦-⑧-|
68
③口①⑥ |①-②-|
口④口① |③-④-|
⑦⑤②口 |⑤-⑥-|
⑤⑦⑧③ |⑦-⑧-|
69
口①口④ |①-②-|
②口③口 |③-④-|
口④口① |⑤-⑥-|
⑤⑦⑧⑥ |⑦-⑧-|
70
①口口口 |①-②-|
③口②① |③-④-|
口口④口
口口口口

口口口口
口口⑧口
⑤⑨口口 |⑤-⑥-|
⑦口⑥口 |⑦-⑧⑨|
71
口①⑧口 |①-②-|
口⑦口⑥ |③-④-|
⑤口④① |⑤-⑥-|
口③口② |⑦-⑧-|
72
①⑤口⑥ |①-②-|
口⑧②口 |③-④-|
口③⑦⑤ |⑤-⑥-|
④口口① |⑦-⑧-|
73
口④①口 |①-②-|
④口②① |③-④-|
①③口④
口①④口

口口口⑦
口⑥⑧口
口口⑤口 |⑤-⑥-|
⑦口口口 |⑦-⑧-|
74
①④口口 |①-②-|
④口口口 |③-④-|
口②口口
口③③①

口口⑤口
口⑥⑥⑤
⑦口口⑧ |⑤-⑥-|
⑦口口⑧ |⑦-⑧-|
75
①④口① |①-②-|
④口口口 |③-④-|
口②口口
口口③口

⑧口⑦口
口口口⑦
口口口口 |⑤-⑥-|
口⑤口⑥ |⑦-⑧-|
76
口口口② |①-②-|
④①③口 |③-④-|
①口口③
口口口口

口口口口
口口口⑥
⑧⑤⑦口 |⑤-⑥-|
⑤口口⑦ |⑦-⑧-|
77
①口②① |①-②-|
口③④口 |③-④-|
口⑤⑥口 |⑤-⑥-|
口⑦⑧口 |⑦-⑧-|
78
⑪⑤⑫④ |①②③④|
⑩⑬⑭③ |⑤-⑥⑦|
⑨⑦⑥② |⑧⑨⑩⑪|
⑧口口① |⑫-⑬⑭|
79
口⑥口口 |①②③④|
⑥口口① |⑤-⑥-|
口④⑤口
口②③口

口口口⑧
口⑧口口
口口口口 |⑦-⑧-|
口⑨⑨⑦ |--⑨-|
80
口口口口 |①②③④|
③⑦⑧④ |⑤⑥⑦⑧|
①⑤⑥②
口口口口

⑨⑨口口
口口口口
⑫口口口 |⑨-⑩-|
⑪口⑩⑩ |--⑪⑫|
81
⑧口①⑨ |①--②|
口②③① |③④⑤⑥|
口④⑤口 |⑦⑧⑨⑩|
⑩⑥⑦⑪ |⑪---|
82
⑧口①口 |①②③④|
⑦②⑨⑤ |⑤-⑥⑦|
⑥⑩③口 |⑧⑨⑩⑪|
口④口⑪ |----|
83
⑨⑥⑤⑨ |①②③④|
⑥口⑦⑤ |⑤-⑥-|
④⑦口③ |⑦-⑧-|
⑧②①⑧ |⑨---|
84
⑪⑥⑤⑪ |①②③④|
④⑧⑦③ |⑤⑥⑦⑧|
口口⑨口 |⑨-⑩-|
⑩②①⑩ |⑪---|
85
⑬⑧⑦⑬ |①②③④|
⑩⑥⑤⑨ |⑤⑥⑦⑧|
④⑫⑪③ |⑨⑩⑪⑫|
口②①口 |⑬---|
86
⑫⑧③⑫ |①②③④|
⑩②口⑤ |⑤⑥⑦⑧|
④口⑦⑨ |⑨⑩⑪⑫|
口⑥⑪① |----|

不確定度: 1

最終更新:2017年08月19日 17:21