ユメイロコンパス
fourfolium

EXTREME

Level: 7
BPM: 130
Notes: 439

1
口口口口 |----|
口口口口 |----|
口口口口 |----|
口口口口 |----|
2
口口口口 |----|
口口口口 |----|
口口口口 |----|
口口口口 |----|
3
口口①口 |①---|
①口口⑤ |②---|
③口口② |③-④-|
④②口⑤ |--⑤-|
4
口口⑥口 |--①-|
⑥④⑤口 |②-③-|
口①②③ |--④-|
口口口口 |⑤-⑥-|
5
口③口口 |----|
口口①③ |----|
口②口口 |--①-|
口口口口 |②-③-|
6
口口口口 |----|
口口口口 |----|
口口口口 |--①-|
①口口② |②---|
7
口①②口 |①---|
口②①口 |②--③|
口口口口
口③口口

口口口口
口⑦⑦口
⑤口口口 |④-⑤-|
口口④⑥ |⑥-⑦-|
8
口⑥口口 |--①-|
⑥④⑤③ |②-③-|
④口②⑤ |--④-|
口①口口 |⑤-⑥-|
9
②口①③ |①---|
④口口① |②---|
口②③⑤ |③-④-|
口⑥⑥口 |⑤-⑥-|
10
口口③口 |--①-|
口②口口 |②-③-|
①口口④ |--④-|
口⑥⑤口 |⑤-⑥-|
11
口口②口 |①---|
口口口口 |②---|
①口②口
口口口口

口③口口
口⑤④口
口③⑥口 |③-④-|
口口口口 |⑤-⑥-|
12
口③口口 |--①-|
③口②口 |②-③-|
①口口② |--④-|
⑤①口④ |⑤---|
13
③口②⑥ |①---|
①④⑤口 |②---|
口⑤④① |③-④-|
⑥②口③ |⑤-⑥-|
14
口②口口 |--①-|
口口口① |--②-|
②口口口 |--③-|
④口①③ |④---|
15
口②①口 |①---|
口①②口 |②-③-|
③口口口
口口口口

口口口口
口⑦⑦口
口口④口 |④-⑤-|
口⑤口⑥ |⑥-⑦-|
16
口④口口 |--①-|
③⑥⑤口 |②-③-|
⑥②⑦⑤ |④-⑤-|
口口①⑦ |⑥-⑦-|
17
口②口② |①---|
口口口口 |②---|
口①口口
①口口口

③⑥③口
⑥④口口
口口⑤⑥ |③-④-|
口口⑥口 |⑤-⑥-|
18
口口口口 |--①-|
⑥④③⑦ |②-③-|
⑥②⑤⑦ |④-⑤-|
①口⑤口 |⑥-⑦-|
19
口②口③ |①---|
④口②口 |②---|
口①口⑤ |③-④-|
⑥①口口 |⑤-⑥-|
20
口口口口 |--①-|
口③③口 |②-③-|
口②口口 |--④-|
④口①⑤ |⑤---|
21
口③①⑤ |①---|
①④口③ |②---|
口口④② |③-④-|
⑤②口口 |--⑤-|
22
①②②口 |--①-|
②口口② |--②-|
口④⑤③ |--③-|
口⑥口① |④⑤⑥-|
23
①口口① |①---|
口口口口 |----|
口口④口 |--②-|
口②②③ |③-④-|
24
口②③口 |①---|
②①口③ |②-③-|
③口口②
口③②口

口口口口
口⑤⑤口
口口口口 |--④-|
④口口④ |--⑤-|
25
口口口口 |----|
口③③口 |----|
①口口② |①-②-|
口口口口 |③---|
26
口口③口 |①---|
口口口③ |②-③-|
③①②口
②③口①

口口口口
口口口口
口口口口 |----|
口口口④ |④---|
27
①口口口 |①---|
③口③口 |--②-|
①口口口 |③---|
②口②口 |----|
28
口口口① |①---|
口③口③ |--②-|
口④⑤① |③---|
口②口② |④-⑤-|
29
⑥①②⑥ |①---|
③口口④ |②-③-|
②⑤⑤① |--④-|
④口口③ |⑤-⑥-|
30
口⑦⑥口 |①-②-|
⑧口口⑤ |③-④-|
①口口④ |⑤-⑥-|
口②③口 |⑦-⑧-|
31
口口口口 |①---|
口②口② |②---|
口①②①
口口①口

口③口③
口口③口
口⑤⑤口 |③---|
④口口④ |④-⑤-|
32
口④③④ |--①-|
④口口③ |②-③-|
①口口② |④---|
⑤①②⑤ |⑤---|
33
口口口口 |①---|
②口②口 |②---|
①②①口
口①口口

③口③口
口③口口
口⑤⑤口 |③---|
④口口④ |④-⑤-|
34
口②②口 |--①-|
②③口③ |②---|
③口③① |③---|
④①①④ |④---|
35
口①口① |①---|
口口①口 |②---|
②口②口
口②口口

③口③口
口③口口
⑤④⑤④ |③---|
口⑤④口 |④-⑤-|
36
口③①口 |--①-|
口②④口 |②-③-|
口口口口 |④---|
⑤口口⑤ |⑤---|
37
口②①口 |①---|
口①②口 |②---|
②口口①
口口口口

口⑤④口
⑤口口④
口口口口 |③---|
口③③口 |④-⑤-|
38
②口口① |--①-|
口⑦⑥口 |②-③-|
②口⑧① |④-⑤-|
⑤③③④ |⑥⑦⑧-|
39
口④①口 |①---|
③⑤口② |②---|
②口⑤③ |③---|
口①④口 |④-⑤-|
40
②口④① |--①-|
口④③④ |②-③-|
①口④② |④---|
⑤口口⑤ |⑤---|
41
口①④口 |①---|
②口⑤③ |②---|
③⑤口② |③---|
口④①口 |④-⑤-|
42
①③④② |--①-|
口口口口 |②-③-|
②④③① |④---|
⑤口口⑤ |⑤---|
43
①口③口 |①---|
口②⑤④ |②---|
①⑤③口 |③---|
口②口④ |④-⑤-|
44
口口口② |①---|
①口口口 |②--③|
口③口口
口口口口

口口口口
⑤口口⑦
⑤口④⑦ |④-⑤-|
口⑥⑥口 |⑥-⑦-|
45
口①①口 |①---|
口口口口 |②---|
口口口口
②口口②

口④口④
口口④口
③口③口 |③---|
口③口口 |④---|
46
②口口口 |①---|
口口口口 |--②-|
口①口①
①口①②

口口③④
口口口③
③口口口 |③---|
④③口口 |--④-|
47
③①②口 |①-②-|
①⑤口④ |③-④-|
⑦口⑥① |⑤-⑥-|
口口①⑧ |⑦-⑧-|
48
口①①口 |--①-|
口②②口 |②-③-|
口③③口
口口口口

④⑦⑦④
⑤口口⑤
⑥口口⑥ |④-⑤-|
口口口口 |⑥-⑦-|
49
②口口① |--①-|
口②①口 |②---|
口①②口 |----|
口口口口 |----|

不確定度: 0

最終更新:2018年07月16日 23:02