Macuilxochitl
TOMOSUKE

EXTREME

Level: 10
BPM: 148
Notes: 757

1
口口口口 |----|
口口口口 |----|
口口口口 |----|
口口口口 |----|
2
口口口口 |①②-③|
口④④口 |--④-|
口③③口
①口口②

口⑤⑥⑦
口口口口
口口口口 |-⑤⑥⑦|
⑪⑩⑨⑧ |⑧⑨⑩⑪|
3
⑨口⑪⑩ |-①②③|
⑦⑥⑤④ |④⑤⑥⑦|
⑧①②③ |⑧--⑨|
口口口口 |-⑩⑪-|
4
口口③④ |---①|
口②②口 |--②-|
口①①口 |--③④|
⑧⑦⑥⑤ |⑤⑥⑦⑧|
5
⑨口⑪⑩ |-①②③|
⑦⑥⑤④ |④⑤⑥⑦|
⑧①②③ |⑧--⑨|
口口口口 |-⑩⑪-|
6
口口口口 |①---|
②③④⑤ |②③④⑤|
口口口口
口①①口

口口口口
口口口口
⑨⑧⑦⑥ |⑥⑦⑧⑨|
⑩⑪⑫⑬ |⑩⑪⑫⑬|
7
口①①口 |①--②|
②③口④ |③-④-|
⑧⑦⑥⑤ |⑤⑥⑦⑧|
口⑨⑩⑪ |-⑨⑩⑪|
8
①口⑫② |①②-③|
⑫口④③ |④⑤⑥⑦|
⑦⑥⑤④ |⑧⑨⑩⑪|
⑧⑨⑩⑪ |⑫---|
9
④①口③ |①---|
口③④① |②---|
口②②口 |-③-④|
口⑤⑤口 |-⑤--|
10
③口口口 |①-②-|
口口口口 |---③|
口①②口
②口口①

口④⑤口
口口⑦⑥
⑧⑨⑩口 |④⑤⑥⑦|
口口口⑪ |⑧⑨⑩⑪|
11
④⑤⑥⑦ |①②③④|
口⑩⑩⑧ |⑤⑥⑦⑧|
口⑨⑨口 |-⑨⑩-|
③②①口 |----|
12
①②③④ |---①|
口⑩⑤口 |②③④⑤|
口⑥⑪口 |⑥⑦⑧⑨|
⑦⑧⑨⑩ |⑩⑪--|
13
口口①口 |---①|
①口口口 |-②-③|
口③口②
口②口口
14
口口口口 |①--②|
口③④口 |--③④|
口口①口
口口口②

口⑤口口
口口口⑤
⑥口⑦口 |---⑤|
口口⑥口 |-⑥-⑦|
15
③④口口 |①---|
口口口口 |②-③④|
口①口口
②口口口

口口⑤⑥
⑩⑨⑧⑦
⑪⑫口口 |⑤⑥⑦⑧|
口口口口 |⑨⑩⑪⑫|
16
⑤⑥⑦⑧ |①②③④|
⑫⑪⑩⑨ |⑤⑥⑦⑧|
⑬⑭⑮⑯ |⑨⑩⑪⑫|
④③②① |⑬⑭⑮⑯|
17
⑤⑥⑤⑥ |①②③④|
口口口④ |-⑤-⑥|
口口口口
①②③④

口口口口
⑧口⑧口
⑦⑨⑦⑨ |-⑦-⑧|
⑩口⑩口 |-⑨-⑩|
18
③④③④ |-①-②|
口①口① |-③-④|
口口口口
口②口②

口口口口
口⑥⑥口
口⑤⑤口 |-⑤--|
口口口口 |-⑥--|
19
④口④③ |①②③④|
②⑧⑧① |-⑤-⑥|
口⑦⑦口 |-⑦--|
⑤⑥⑤⑥ |-⑧--|
20
①②③④ |①②③④|
口口口口 |--⑤⑥|
⑤⑥口口
口口口口

⑫⑬口口
口口口口
口口口⑪ |⑦⑧⑨⑩|
⑩⑨⑧⑦ |⑪-⑫⑬|
21
口口①口 |①-②-|
口口口② |③④⑤⑥|
③④⑤⑥
口口口口

口口⑪⑩
口口口口
口口口口 |⑦-⑧⑨|
⑧⑨口⑦ |-⑩⑪-|
22
口口口口 |①②③④|
①②③④ |⑤--⑥|
口⑤⑤口
⑥口口口

口口⑪口
⑧⑨⑩口
⑪口口口 |-⑦-⑧|
口口口⑦ |⑨⑩-⑪|
23
口①口口 |-①-②|
口口口口 |-③-④|
口③④①
④②②③

口⑧⑧口
⑥⑤⑤⑦
口口口口 |-⑤-⑥|
口口口口 |⑦-⑧-|
24
①⑥⑥② |①②-③|
⑦⑤⑤⑧ |-④-⑤|
①④④② |--⑥-|
口③③口 |⑦⑧--|
25
口口口口 |-①-②|
口⑤⑤口 |-③-④|
④③①② |--⑤-|
①②④③ |----|
26
口①②③ |-①②③|
⑦⑥⑤④ |④⑤⑥⑦|
⑧⑩⑨口 |⑧-⑨-|
⑨口口⑩ |--⑩-|
27
口①②③ |-①②③|
⑦⑥⑤④ |④⑤⑥⑦|
⑧⑨⑩口 |⑧⑨--|
⑩口口⑨ |-⑩--|
28
口①②③ |-①②③|
⑦⑥⑤④ |④⑤⑥⑦|
⑧⑩⑨口 |⑧-⑨-|
⑨口口⑩ |--⑩-|
29
口①②③ |-①②③|
⑦⑥⑤④ |④⑤⑥⑦|
⑧⑩⑨口 |⑧⑨--|
⑨口口⑩ |⑩---|
30
口①②③ |-①②③|
⑦⑥⑤④ |④⑤⑥⑦|
⑧⑨⑩⑪ |⑧⑨⑩⑪|
⑫⑬⑭⑮ |⑫⑬⑭⑮|
31
①②③④ |①②③④|
⑧⑦⑥⑤ |⑤⑥⑦⑧|
⑫⑪⑩⑨ |⑨⑩⑪⑫|
⑯⑮⑭⑬ |⑬⑭⑮⑯|
32
①②③④ |①②③④|
⑧⑦⑥⑤ |⑤⑥⑦⑧|
⑫⑪⑩⑨ |⑨⑩⑪⑫|
⑯⑮⑭⑬ |⑬⑭⑮⑯|
33
①口口② |①--②|
③④⑤口 |-③④⑤|
⑥口口⑦ |⑥--⑦|
口⑦⑥口 |----|
34
口②①口 |①②-③|
①口口② |-④-⑤|
口④③口
③⑤⑤④
35
①⑪②⑩ |--①②|
⑦③⑫⑥ |③④⑤⑥|
⑤⑨⑧④ |⑦⑧-⑨|
⑧口口⑨ |-⑩⑪⑫|
36
口口口口 |①②③④|
⑤口口⑥ |⑤⑥⑦⑧|
③口口④
⑦①②⑧

⑪口口⑫
口⑩⑩口
⑬⑨⑨⑭ |⑨--⑩|
口口口口 |⑪⑫⑬⑭|
37
口⑧⑧口 |-①②③|
⑨⑦⑦⑩ |-④⑤⑥|
口③⑥口 |⑦--⑧|
①⑤②④ |-⑨⑩-|
38
⑥口口⑦ |-①②③|
口⑤④口 |--④-|
④口③⑤ |-⑤--|
口②口① |⑥-⑦-|
39
口⑧⑧口 |-①②③|
⑨⑦⑦⑩ |-④⑤⑥|
口③⑥口 |⑦--⑧|
①⑤②④ |-⑨⑩-|
40
口口口口 |-①②③|
口口④口 |--④-|
④口③口
口②口①

口口口口
口⑤口口
口⑧⑨⑤ |-⑤--|
⑥口口⑦ |⑥⑦⑧⑨|
41
③④⑤⑥ |①-②-|
①口口② |③④⑤⑥|
⑦⑧⑫⑪ |⑦⑧⑨⑩|
⑭⑬⑨⑩ |⑪⑫⑬⑭|
42
③④⑤⑥ |①-②-|
①口口② |③④⑤⑥|
⑦⑧⑫⑪ |⑦⑧⑨⑩|
⑭⑬⑨⑩ |⑪⑫⑬⑭|
43
③④⑤⑥ |①-②-|
①口口② |③④⑤⑥|
⑦⑧⑫⑪ |⑦⑧⑨⑩|
⑭⑬⑨⑩ |⑪⑫⑬⑭|
44
③④⑤⑥ |①-②-|
①口口② |③④⑤⑥|
⑦⑧⑫⑪ |⑦⑧⑨⑩|
⑭⑬⑨⑩ |⑪⑫⑬⑭|
45
口①②口 |①--②|
②④③① |--③-|
③口口④ |-④--|
口⑤⑥口 |⑤⑥--|
46
口①②口 |①--②|
②④③① |--③-|
③口口④ |-④--|
口口口口
47
⑥口⑦口 |-①②③|
⑤口口口 |④⑤⑥⑦|
口③④口
①口口②
48
口③口② |①---|
口①④口 |--②③|
⑤⑦口⑥ |④-⑤-|
口⑥⑤⑦ |⑥-⑦-|
49
②⑤③⑦ |①---|
口④⑥口 |--②③|
口口①口 |④---|
①口口口 |⑤⑥⑦-|
50
口④③口 |①---|
口口⑥口 |-②③④|
⑥②⑤口 |⑤---|
口①①口 |⑥---|
51
口口口口 |①---|
口①口口 |----|
口口口①
口口口口

口口⑤口
口④③口
口⑤口口 |②-③-|
②③④② |④-⑤-|
52
②①口③ |①---|
口口口口 |--②③|
口口①口
口口口口

口口口口
⑥口口⑦
④⑦⑥⑤ |④-⑤-|
口⑤④口 |⑥-⑦-|
53
口①①口 |①---|
口口口口 |--②③|
口⑥④口 |④---|
⑦③⑤② |⑤⑥⑦-|
54
口①①口 |①---|
⑥④③口 |-②③④|
口口⑥口 |⑤---|
口②⑤口 |⑥---|
55
口②②口 |①---|
口口口① |----|
口①口口 |②---|
口口口口 |----|
56
口口⑥口 |①②③④|
⑥④①口 |-⑤-⑥|
口⑤⑤口
口②③口

口⑦口口
口⑪⑧⑦
口口口口 |--⑦-|
口⑨⑩口 |⑧⑨⑩⑪|
57
④口口① |①②③④|
⑤口口口 |--⑤-|
②口⑤③
口口口口

口⑦⑧口
口口口⑥
⑨⑥口⑩ |⑥-⑦⑧|
⑪口口⑫ |⑨⑩⑪⑫|
58
口口⑥口 |①②③④|
⑥④①口 |-⑤-⑥|
口⑤⑤口
口②③口

口⑦口口
口⑪⑧⑦
口口口口 |--⑦-|
口⑨⑩口 |⑧⑨⑩⑪|
59
④口口① |①②③④|
⑤口口口 |--⑤-|
②口⑤③
口口口口

口⑦⑧口
口口口⑥
⑨⑥口⑩ |⑥-⑦⑧|
⑪口口⑫ |⑨⑩⑪⑫|
60
口口⑥口 |①②③④|
⑥④①口 |-⑤-⑥|
口⑤⑤口
口②③口

口⑦口口
口⑪⑧⑦
口口口口 |--⑦-|
口⑨⑩口 |⑧⑨⑩⑪|
61
④口口① |①②③④|
⑤口口口 |--⑤-|
②口⑤③
口口口口

口⑦⑧口
口口口⑥
⑨⑥口⑩ |⑥-⑦⑧|
⑪口口⑫ |⑨⑩⑪⑫|
62
口口⑥口 |①②③④|
⑥④①口 |-⑤-⑥|
口⑤⑤口
口②③口

口⑦口口
口⑪⑧⑦
口口口口 |--⑦-|
口⑨⑩口 |⑧⑨⑩⑪|
63
④口口① |①②③④|
⑤口口口 |--⑤-|
②口⑤③
口口口口

口口口口
口⑦⑧⑥
⑨⑥口⑩ |⑥-⑦⑧|
⑪口口⑫ |⑨⑩⑪⑫|
64
口②②口 |①-②-|
口③④⑤ |-③④⑤|
口口口口
口①①口

口口口口
口口口口
⑨⑧⑦⑥ |⑥⑦⑧⑨|
⑩⑪⑫⑬ |⑩⑪⑫⑬|
65
口①①口 |①---|
口口口口 |----|
口口口口 |----|
口口口口 |----|


不確定度: 0

最終更新:2013年03月29日 20:34