ススメRunner!!
fourfolium

EXTREME

Level: 8
BPM: 176
Notes: 510

1
口口口口 |----|
口口口口 |----|
口口口口 |----|
口口口口 |----|
2
口口口口 |①---|
口①①口 |----|
①口口①
口口口口

口②②口
②④④②
④口口④ |②-③-|
口③③口 |--④-|
3
①口口① |----|
口口口口 |----|
口①①口 |①---|
口口口口 |----|
4
口口口口 |①---|
口①①口 |----|
①口口①
口口口口

口②②口
②④④②
④口口④ |②-③-|
口③③口 |--④-|
5
口口口口 |----|
①口口① |----|
口口口口 |①---|
口①①口 |----|
6
①口⑥② |①---|
口⑤口口 |②---|
①口④② |③-④-|
口③口口 |⑤-⑥-|
7
口①口口 |--①-|
口口口② |--②-|
①③③口 |----|
口口②口 |③---|
8
⑦⑦⑧⑧ |①-②-|
⑤口口⑥ |③-④-|
③口口④ |⑤-⑥-|
①口口② |⑦-⑧-|
9
口口⑩口 |--①②|
口⑨口⑦ |③④⑤⑥|
⑧②①口 |⑦-⑧-|
⑥⑤④③ |⑨-⑩-|
10
①口⑧② |①-②-|
口⑦口⑧ |③-④-|
口③⑥口 |⑤-⑥-|
口⑤④口 |⑦-⑧-|
11
②②口① |--①-|
口口①口 |--②-|
口口口口 |--③-|
口⑤④③ |④-⑤-|
12
⑧口口口 |①-②-|
③⑧⑥① |③-④-|
口⑤②口 |⑤-⑥-|
④口口⑦ |⑦-⑧-|
13
口①②② |--①-|
①口口口 |--②-|
口口口口 |----|
口口口口 |----|
14
口口口口 |①---|
④⑤③② |--②-|
口①①口 |③---|
④⑤③② |④-⑤-|
15
口口口口 |----|
口口口口 |①-②-|
②口口① |----|
口口③③ |③---|
16
②②①① |①---|
⑤口口④ |②---|
口口口口 |③---|
③③口口 |④-⑤-|
17
口⑦①口 |①-②-|
口②⑥口 |③-④-|
口口③⑤ |--⑤-|
口④口口 |⑥-⑦-|
18
②⑥口① |①-②-|
⑥口口口 |③---|
口口⑤口 |④---|
④④③③ |⑤-⑥-|
19
①口②② |--①-|
口①口口 |--②-|
口口口口 |--③-|
③④⑤口 |④-⑤-|
20
口口口⑧ |①-②-|
①⑥⑧③ |③-④-|
口②⑤口 |⑤-⑥-|
⑦口口④ |⑦-⑧-|
21
②②①口 |--①-|
口口口① |--②-|
口口口口 |----|
口口口口 |----|
22
口口②口 |①---|
口②①② |--②-|
口口②口
口口口口

口③口③
口口⑤口
口③口③ |③---|
④口口口 |④-⑤-|
23
口口口口 |----|
口口口口 |①-②-|
①口口② |----|
③③口口 |③---|
24
①①②② |①---|
④口口⑤ |②---|
口口口口 |③---|
口口③③ |④-⑤-|
25
口①口口 |①-②-|
口口②口 |③-④-|
口③口口 |----|
口口④口 |----|
26
口①①② |----|
口口口③ |①---|
口口④口 |②-③-|
口口⑤口 |④-⑤-|
27
①口口口 |--①-|
口②口口 |②-③-|
③口口口 |④-⑤-|
④⑤⑥⑦ |⑥-⑦-|
28
口①口口 |----|
①③①口 |①---|
③②③① |②---|
口④口③ |③-④-|
29
④③②① |①-②-|
⑤⑥⑦⑧ |③-④-|
口口口口 |⑤-⑥-|
口口口口 |⑦-⑧-|
30
①②口① |----|
口口③口 |①---|
口④口口 |②-③-|
口口⑤口 |④-⑤-|
31
①口①口 |----|
口②口② |①---|
③口③口 |②---|
口口口口 |③---|
32
口②③口 |①---|
口②③口 |--②-|
④口口口 |③---|
④①口① |--④-|
33
②⑥口口 |①---|
口口⑤口 |--②-|
口④口① |③-④-|
口口③① |⑤-⑥-|
34
②口口② |----|
口口口口 |----|
口口口口 |----|
口①①口 |①-②-|
35
口口③口 |----|
口②口口 |----|
口口①口 |--①-|
口口口口 |②-③-|
36
①②⑧⑦ |①-②-|
⑤⑥④③ |③-④-|
①②⑧⑦ |⑤-⑥-|
⑤⑥④③ |⑦-⑧-|
37
口③口口 |①-②-|
口⑥⑤④ |--③-|
口①口口 |--④-|
口口口② |⑤-⑥-|
38
⑧⑦⑥⑤ |①-②-|
口口口口 |③-④-|
口口口口 |⑤-⑥-|
①②③④ |⑦-⑧-|
39
口口口口 |①-②-|
口口口口 |----|
口①②口
口口口口

口口③口
口口口③
口⑤口口 |③---|
④口口口 |④-⑤-|
40
②口口口 |①---|
口④①口 |②-③-|
口口⑤口 |----|
口口口③ |④-⑤-|
41
④口③③ |①---|
口口口口 |②-③-|
口口口口 |----|
口①口② |--④-|
42
口⑤③口 |①---|
⑤口口③ |②---|
④①①⑥ |③-④-|
②④⑥② |⑤-⑥-|
43
口口③③ |①-②-|
口①②口 |--③-|
口①②④ |----|
口④口口 |④---|
44
①②⑧⑦ |①-②-|
⑤⑥④③ |③-④-|
①②⑧⑦ |⑤-⑥-|
⑤⑥④③ |⑦-⑧-|
45
口③口口 |①-②-|
口⑥⑤④ |--③-|
口①口口 |--④-|
口口口② |⑤-⑥-|
46
⑧⑦⑥⑤ |①-②-|
口口口口 |③-④-|
口口口口 |⑤-⑥-|
①②③④ |⑦-⑧-|
47
口口口口 |①-②-|
口口口口 |----|
口①②口
口口口口

口口③口
口口口③
口⑤口口 |③---|
④口口口 |④-⑤-|
48
②口口口 |①---|
口④①口 |②-③-|
口口⑤口 |----|
口口口③ |④-⑤-|
49
④口③③ |①---|
口口口口 |②-③-|
口口口口 |----|
口①口② |--④-|
50
⑥口口③ |①---|
口⑤④口 |②---|
口①①口 |③-④-|
②口口② |⑤-⑥-|
51
口②①口 |①-②-|
③④④③ |--③-|
口②①口 |----|
口口口口 |④---|
52
②口口口 |①---|
口口口口 |--②-|
口②口口
①口口①

口口口③
口④口口
口口③口 |③---|
④口口口 |--④-|
53
口④⑤口 |①-②-|
口口①口 |③-④-|
口口口口 |⑤---|
口②③① |----|
54
⑤口⑥⑥ |①-②-|
①①口口 |③---|
②②口口 |④---|
③③口④ |⑤-⑥-|
55
口⑤口口 |--①-|
口④口口 |②---|
口③口口 |③-④-|
①口②口 |⑤---|
56
口口口口 |①-②-|
口口①① |③---|
口口②②
口口③③

④口⑦⑤
口口口⑦
⑥口口口 |④-⑤-|
口口口口 |⑥-⑦-|
57
④口口⑤ |--①-|
口①口口 |②---|
口口②口 |③-④-|
口③③口 |⑤---|
58
口口口口 |①---|
口①①口 |----|
①口口①
口口口口

口②②口
②④④②
④口口④ |②-③-|
口③③口 |--④-|
59
①口口① |----|
口口口口 |----|
口①①口 |①---|
口口口口 |----|
60
口口口口 |①---|
口①①口 |----|
①口口①
口口口口

口②②口
②④④②
④口口④ |②-③-|
口③③口 |--④-|
61
口口口口 |----|
①口口① |----|
口口口口 |①---|
口①①口 |----|
62
①口⑥② |①---|
口⑤口口 |②---|
①口④② |③-④-|
口③口口 |⑤-⑥-|
63
口①口口 |--①-|
口口口② |--②-|
①③③口 |----|
口口②口 |③---|
64
⑦⑦⑧⑧ |①-②-|
⑤口口⑥ |③-④-|
③口口④ |⑤-⑥-|
①口口② |⑦-⑧-|
65
⑭⑬⑫⑪ |--①②|
⑩⑨⑧⑦ |③④⑤⑥|
⑥⑤④③ |⑦⑧⑨⑩|
口②①口 |⑪⑫⑬⑭|
66
口口口口 |①-②-|
④口口④ |③---|
口④④③ |④---|
④②①④ |----|
67
口口口口 |----|
口口口口 |----|
口口②口 |----|
口①口口 |--①②|
68
口①①口 |①---|
口口口口 |----|
口口口口 |----|
口口口口 |----|

不確定度: 0

最終更新:2018年07月16日 23:01