JUMPin' JUMP UP!!!!
fourfolium

EXTREME

Level: 8
BPM: 168
Notes: 523

1
口口口口 |------|
口口口口 |------|
口口口口 |------|
口口口口 |------|
2
②口②口 |------|
口口口口 |------|
口口口口 |①-----|
口①口① |②-----|
3
④①口③ |①-----|
①②③② |②-----|
口①口③ |③-----|
①口③⑤ |④---⑤-|
4
口⑤③③ |①-----|
④④③③ |②-----|
口②②口 |③-----|
①①口口 |④---⑤-|
5
⑤⑤口③ |①-----|
口口②② |②---③-|
口①口④ |④-----|
口口口口 |⑤-----|
6
口口口口 |①-----|
口口口口 |②-----|
口②②口
口口①①

口口口⑤
口③③口
口口口口 |③---④-|
④口口⑥ |⑤---⑥-|
7
①口④口 |①-----|
⑤②②⑤ |②---③-|
⑤②②⑤ |④-----|
口③口⑥ |⑤---⑥-|
8
①口④④ |①-----|
口口②④ |②-----|
③③口口 |③-----|
口③⑤口 |④---⑤-|
9
口①口④ |①-----|
⑤②②⑤ |②---③-|
⑤②②⑤ |④-----|
③口口口 |⑤-----|
10
⑧①④⑧ |①-②-③-|
⑧⑤②⑧ |④-⑤-⑥-|
⑧③⑥⑧ |⑦-----|
口⑦口口 |⑧-----|
11
口口①④ |①-----|
⑤②②⑤ |②---③-|
⑤②②⑤ |④-----|
③口⑥口 |⑤---⑥-|
12
口①④④ |①-----|
口口②④ |②-----|
③③口口 |③-----|
口③口⑤ |④---⑤-|
13
①⑦口⑩ |①-②-③-|
口口④口 |④-⑤-⑥-|
⑪⑤⑧② |⑦-⑧-⑨-|
③⑨⑥⑫ |⑩-⑪-⑫-|
14
⑤③⑤④ |①---②-|
①口②口 |--③---|
口③口④ |④---⑤-|
①⑥②⑥ |--⑥---|
15
口口口③ |①-----|
口①口① |------|
①口①口 |②-----|
②口口口 |③-----|
16
①①口口 |①-----|
①①②口 |②-----|
口口口口
口口口口

口口口口
口④口口
口口③③ |③-----|
口口③③ |④-----|
17
③③①① |①-----|
口口①① |②-----|
②②口口 |③-----|
②②③③ |------|
18
口口口口 |①-----|
口①③口 |②-----|
口①③口 |③-----|
②口④口 |④-----|
19
口③④口 |①---②-|
①口口口 |③-----|
口③④口 |④-----|
⑤口口② |----⑤-|
20
②②口口 |①-----|
口口口① |②-----|
口④口口 |③-----|
口口③③ |----④-|
21
口口口口 |①-----|
口口①口 |②-----|
②口口③ |③-----|
②口口③ |------|
22
口口口口 |①-②-③-|
⑦①③② |④-⑤-⑥-|
口⑧④⑨ |⑦---⑧-|
⑩⑤⑪⑥ |⑨-⑩-⑪-|
23
①①口② |①---②-|
③③口④ |③---④-|
⑤⑤口口 |⑤-----|
口口口口 |------|
24
②口口③ |①---②-|
口①①口 |③-----|
口④④口 |④---⑤-|
⑤口口⑥ |⑥-----|
25
③口口④ |①---②-|
口口口口 |③-④-⑤-|
口口口② |⑥-----|
⑤①①⑥ |------|
26
口口①口 |①-----|
②②①④ |②-----|
口③①④ |③-----|
口口口口 |④-----|
27
口口口口 |①---②-|
口③②口 |③-----|
口口口口
口①①口

④口口④
⑤口⑤口
口口口口 |④-----|
口口口口 |----⑤-|
28
口①口口 |①-----|
口①口口 |②-----|
②①③口 |③-----|
④口口口 |----④-|
29
口③口口 |①-----|
口口口口 |②-----|
口②口口 |③-----|
口口口① |------|
30
口口口口 |①-②-③-|
口④①口 |④-⑤-⑥-|
口②⑤口
口⑥口③

⑩口口口
口口口⑨
⑧口口口 |⑦-⑧-⑨-|
口口⑦⑪ |⑩---⑪-|
31
口①口口 |①---②-|
①②①口 |--③-④-|
口⑤口口 |⑤-----|
③④③口 |------|
32
②口①③ |①---②-|
口①口① |③---④-|
口口①口
④口口口

口口口口
口口口口
口⑥⑦口 |⑤---⑥-|
口口口⑤ |⑦-----|
33
口①①口 |①---②-|
口③③口 |③-----|
②④④口 |④-----|
口口口口 |------|
34
口口口口 |①-----|
口口口③ |------|
口②口口 |②-----|
①口口口 |③-----|
35
口口①口 |①-----|
口②①口 |------|
口口口口 |②-----|
口口口口 |------|
36
口口④口 |①-----|
口口③口 |②-----|
口口②口 |③-----|
口口①口 |④-----|
37
①口口② |①-----|
口③口口 |------|
口口口口 |------|
口口口口 |②---③-|
38
③③⑤⑤ |①---②-|
口口①口 |----③-|
口口口口 |----④-|
口②口④ |----⑤-|
39
⑤口口口 |----①-|
口口⑥口 |②---③-|
口①②④ |----④-|
③口口口 |⑤---⑥-|
40
口口③③ |①---②-|
口①口口 |----③-|
口口口口
口口②口

口口口口
口口口口
口口口口 |----④-|
④口⑤口 |----⑤-|
41
①①口口 |①-----|
④口口口 |②---③-|
口②②口 |----④-|
口口口③ |------|
42
口⑤①① |①-----|
口口口④ |②---③-|
口②②口 |----④-|
③口口口 |----⑤-|
43
口口口口 |①-----|
口口口口 |------|
口②②口 |②-----|
口口①口 |------|
44
口②②口 |①-----|
①①①① |------|
口口口口 |------|
口口口口 |②-----|
45
⑥口口⑥ |①---②-|
⑥④④⑥ |③---④-|
②口口③ |----⑤-|
⑤①①⑤ |----⑥-|
46
②口口② |------|
口口①口 |------|
②口①② |①-----|
口口①① |②-----|
47
④①口③ |①-----|
①②③② |②-----|
口①口③ |③-----|
①口③⑤ |④---⑤-|
48
口⑤③③ |①-----|
④④③③ |②-----|
口②②口 |③-----|
①①口口 |④---⑤-|
49
口口⑥③ |①-----|
口口②② |②---③-|
口①口④ |④-----|
⑤口口口 |⑤---⑥-|
50
④口口口 |①-----|
口①②③ |②-----|
口①②③ |③-----|
口口⑤口 |④---⑤-|
51
口①④② |①-----|
①④①④ |②---③-|
口①④口 |④-----|
⑤③口口 |⑤-----|
52
③③⑤④ |①-----|
③③④口 |②-----|
口②②口 |③-----|
口口①① |④---⑤-|
53
③②口口 |①-----|
②④口① |②---③-|
⑤⑤口口 |④-----|
口⑤口口 |⑤-----|
54
口口①① |①-----|
口口口① |------|
口口口口
口口口口

③口口③
口②②口
③口口③ |②-----|
口口口口 |③-----|
55
④①口③ |①-----|
①②③② |②-----|
口①口③ |③-----|
①口③⑤ |④---⑤-|
56
口口口口 |①-----|
口口口口 |②-----|
口②②口
①①口口

口口③③
口④③③
⑤口口口 |③-----|
口④口口 |④---⑤-|
57
⑤口口口 |①-----|
口口②口 |②---③-|
口③①④ |④-----|
口口②⑥ |⑤---⑥-|
58
④口③口 |①-----|
口②③口 |②-----|
①②口口 |③-----|
①口口⑤ |④---⑤-|
59
③③②② |①-----|
③③②② |②-----|
①①④④ |③-----|
①①④④ |④-----|
60
口口①① |①-----|
口口②口 |②-----|
口②口口
①①口口

口③⑤口
③④口口
口口④③ |③-----|
口口③口 |④---⑤-|
61
口③口② |①-----|
口口口口 |②---③-|
口口口口
②①口口

口口口口
口口口口
⑤⑤口口 |④-----|
口⑤④口 |⑤-----|
62
②②①① |①-----|
④口口① |②-----|
④口口口 |③-----|
口口③③ |④-----|
63
④口口④ |①---|
口②③① |--②③|
口④④① |④---|
口口口口 |----|

不確定度: 0

最終更新:2018年07月16日 22:57