STEP by STEP UP↑↑↑↑
fourfolium

EXTREME

Level: 8
BPM: 175
Notes: 482

1
口口口口 |----|
口口口口 |----|
口口口口 |----|
口口口口 |----|
2
口②②口 |----|
②口口② |----|
①口口① |①---|
口①①口 |②---|
3
③口口① |①---|
口口口⑤ |②---|
口②口④ |③---|
口口口口 |④-⑤-|
4
口口口口 |--①-|
口③③口 |②-③-|
口②②口 |----|
口①①口 |----|
5
①口口③ |①---|
⑤口口④ |②---|
⑤口②口 |③-④-|
口口口口 |--⑤-|
6
口口口口 |--①-|
口③③口 |②-③-|
⑤②②口 |----|
口①①④ |④-⑤-|
7
口口口口 |①---|
口口口① |--②-|
④③②④ |③---|
口口口口 |--④-|
8
③④①② |--①-|
④口口口 |②-③-|
口口口④ |----|
②①④③ |④---|
9
口口口口 |①---|
口①①口 |----|
口①①口 |----|
②口口② |②---|
10
②③③② |①---|
口③③口 |----|
①③③① |②---|
口口口口 |--③-|
11
口口口口 |----|
口口口口 |----|
口口口口 |----|
口口口口 |----|
12
口口口口 |----|
口口口口 |----|
口口口口 |----|
口口口口 |----|
13
口口②① |①---|
口口口口 |②---|
口口②①
口口口口

口⑤口⑤
④口口口
③口口口 |③-④-|
口口口口 |--⑤-|
14
④口口⑤ |--①-|
口口③③ |②-③-|
口②②口 |--④-|
口口①① |⑤---|
15
⑤①⑤口 |①---|
①口口口 |②-③-|
④口③② |--④-|
口口口口 |--⑤-|
16
⑤口口④ |--①-|
③③口口 |②-③-|
口②②口 |--④-|
①①口口 |⑤---|
17
口口口口 |①---|
②④①③ |②---|
④②③① |③---|
口口口口 |④---|
18
⑤③③⑥ |①-②-|
口口口口 |③-④-|
口④④口 |--⑤-|
②②①① |⑥---|
19
口口口⑦ |①-②-|
④口⑥⑤ |③-④-|
①④③② |⑤-⑥-|
口①口口 |⑦---|
20
⑥⑤④口 |①-②-|
③③口⑦ |③-④⑤|
⑧口②② |⑥-⑦-|
①①口⑨ |⑧-⑨-|
21
⑥口口口 |①---|
②③④⑤ |②-③-|
⑥①①口 |④-⑤-|
口①①口 |--⑥-|
22
口④口① |--①-|
口②⑤口 |②-③-|
口⑥口③ |--④-|
口口口口 |⑤-⑥-|
23
③④口② |①---|
①口口口 |②---|
⑤口口② |③-④-|
口⑤口口 |--⑤-|
24
口口④口 |--①-|
口②③④ |--②-|
口①②口 |--③-|
口口口口 |--④-|
25
①口口口 |----|
②口口口 |①---|
③口口口 |②---|
口口口口 |③---|
26
口口①⑦ |①-②-|
口②⑦口 |③-④-|
⑥口③⑤ |--⑤-|
⑥④口⑤ |⑥-⑦-|
27
①口口口 |①---|
③①口② |②---|
口④④口 |③---|
口口口口 |④---|
28
③③②② |①---|
③口口② |②---|
①口口④ |③---|
①①④④ |④---|
29
口⑤口④ |----|
⑤口③口 |①-②-|
口②口口 |③-④-|
①口口口 |--⑤-|
30
口口③口 |--①-|
口口口③ |--②-|
②④④① |--③-|
口②①口 |--④-|
31
口口③③ |----|
口口口③ |----|
口②口口 |--①-|
①口口口 |②-③-|
32
口口口口 |----|
①口口③ |①---|
①口口② |--②-|
口口口口 |③---|
33
口口④口 |----|
口③②④ |①---|
口①①口 |②-③-|
口口口口 |--④-|
34
口③口口 |--①-|
③④④口 |--②-|
①口口② |--③-|
口①②口 |--④-|
35
口口口① |--①-|
口⑦⑥② |②-③-|
口⑤④③ |④-⑤-|
口口口口 |⑥-⑦-|
36
④④③③ |--①-|
口口口⑤ |②-③-|
口口口⑤ |④---|
②②①① |⑤---|
37
口口口② |①---|
①①口口 |②---|
口口口口
②②口口

口口⑤口
口⑥口口
③④口口 |③-④-|
口口口口 |⑤-⑥-|
38
①⑤④② |--①-|
②口口口 |②-③-|
③口口口 |--④-|
口口口口 |⑤---|
39
②⑤口口 |①---|
口⑥①① |②---|
口口④③ |③-④-|
口口②② |⑤-⑥-|
40
②④⑤① |--①-|
⑥口口② |②-③-|
⑥口口③ |--④-|
⑥口口口 |⑤-⑥-|
41
②口口① |--①-|
口口口⑤ |②-③-|
口④③⑤ |④---|
口口口⑤ |--⑤-|
42
①⑤口② |--①-|
⑥口④⑥ |②-③-|
⑥③口⑥ |④-⑤-|
口口口口 |--⑥-|
43
口口口口 |--①-|
口③④口 |②-③-|
⑦⑦⑦⑦ |④-⑤-|
⑤①②⑥ |⑥-⑦-|
44
口口①① |----|
②③②① |①---|
③③③口 |②---|
②③②口 |③---|
45
①①③⑤ |①---|
④口口② |②---|
口口口⑤ |③--④|
口口口② |--⑤-|
46
口④口口 |--①-|
口⑤③③ |②-③-|
②②口口 |--④-|
口口①① |⑤---|
47
⑤③①① |①---|
②口口④ |②---|
⑤口口口 |③--④|
②口口口 |--⑤-|
48
口口④口 |--①-|
③③⑤口 |②-③-|
口口②② |--④-|
①①口口 |⑤---|
49
②口口① |----|
③口口③ |①---|
①口口② |②---|
口口口口 |③---|
50
口口①口 |①-②-|
⑤②口口 |③-④-|
口口③口 |----|
⑤④口口 |--⑤-|
51
口口⑧⑨ |--①②|
口④⑤⑥ |③-④⑤|
⑦①②③ |⑥-⑦-|
口口口口 |⑧-⑨-|
52
①①口口 |----|
①②③② |①---|
口③③③ |②---|
口②③② |③---|
53
⑤③①① |①---|
②口口④ |②---|
⑤口口口 |③--④|
②口口口 |--⑤-|
54
口口④口 |--①-|
③③⑤口 |②-③-|
口口②② |--④-|
①①口口 |⑤---|
55
①①③⑤ |①---|
④口口② |②---|
口口口⑤ |③--④|
口口口② |--⑤-|
56
口口口口 |--①-|
口①口口 |②-③-|
⑤口②口 |----|
口③口④ |④-⑤-|
57
口口口口 |①---|
口口口① |--②-|
④②②④ |③---|
口③③口 |--④-|
58
口①①口 |--①-|
口②②口 |②-③-|
口③③口 |----|
口口口口 |----|
59
口口口口 |①-②-|
⑤④④⑥ |③-④-|
①⑦⑦② |--⑤-|
口③③口 |⑥-⑦-|
60
①③④① |--①-|
③口口④ |②---|
④口口③ |③---|
②④③② |④---|
61
口口口口 |①---|
口①①口 |----|
口①①口 |----|
②口口② |②---|
62
②③③② |①---|
口③③口 |----|
①③③① |②---|
口口口口 |--③-|
63
⑥口口⑤ |--①-|
④⑦⑦③ |②-③-|
②口口① |④-⑤-|
口口口口 |⑥-⑦-|
64
口④③口 |--①-|
口口口口 |②-③-|
口口口口 |④---|
口②①口 |----|
65
口口口口 |①---|
①①①① |----|
①口口① |----|
口口口口 |----|

不確定度: 0

最終更新:2018年07月16日 22:59