炉心融解 [2]
iroha

BASIC

Level: 2
BPM: 165
Notes: 168

1
口口口口 |----|
口口口口 |----|
口口口口 |----|
口口口口 |----|
2
口口口口 |①---|
口口口口 |----|
口口口口 |----|
|----|
3
口口口口 |--①-|
口口②口 |----|
口①口口 |②---|
口口口 |----|
4
|①---|
口口口口 |----|
口口口口 |----|
口口口口 |----|
5
口口口 |----|
口口口口 |①---|
口口口口 |----|
口口口口 |----|
6
口口口口 |----|
口口口口 |----|
口口口口
口口口口
7
口口口口 |①---|
口①①口 |----|
口口口口 |----|
口口口口 |----|
8
口口 |①---|
口口 |----|
口口 |----|
口口 |----|
9
口口口口 |----|
口口口口 |----|
口口口口 |----|
口口口口 |----|
10
口口口口 |----|
口口口口 |----|
口口口口 |----|
口口口口 |----|
11
口口口口 |①---|
口口口口 |----|
口②②口 |②---|
口口 |----|
12
口口口口 |①---|
口口口口 |----|
口口 |----|
口口 |----|
13
口口口口 |①---|
口口口口 |----|
口②②口 |②---|
口口 |----|
14
口口口口 |①---|
口口 |----|
口口 |----|
口口口口 |----|
15
口口口口 |①---|
③口 |----|
口口②口 |②---|
口口口口 |③---|
16
①②口口 |①---|
口口口口 |----|
口口口口 |②---|
口口口口 |----|
17
口口①② |①---|
口口口口 |----|
口口口口 |②---|
口口口口 |----|
18
口口口口 |①---|
口口②① |----|
口口口口 |②---|
口口口口 |----|
19
口口口口 |①---|
②①口口 |----|
口口口口 |②---|
口口口口 |----|
20
口口口口 |①---|
口口口口 |----|
①②口口 |②---|
口口口口 |----|
21
口口口口 |①---|
口口口口 |----|
口口①② |②---|
口口口口 |----|
22
口口口口 |①---|
口口②① |----|
口口口口 |②---|
口口口口 |----|
23
口口口口 |①---|
②①口口 |----|
口口口口 |②---|
口口口口 |----|
24
口①口口 |①---|
口②口口 |----|
口口口口 |②---|
口口口口 |----|
25
口口①口 |①---|
口口②口 |----|
口口口口 |②---|
口口口口 |----|
26
口①口口 |①---|
口②口口 |----|
口口口口 |②---|
口口口口 |----|
27
口口①口 |①---|
口口②口 |----|
口口口口 |②---|
口口口口 |----|
28
口①口口 |①---|
口②口口 |----|
口口口口 |②---|
口口口口 |----|
29
口口①口 |①---|
口口②口 |----|
口口口口 |②---|
口口口口 |----|
30
口①口口 |①---|
口②口口 |----|
口口口口 |②---|
口口口口 |----|
31
口口①口 |①---|
口口②口 |----|
口口口口 |②---|
口口口口 |----|
32
口口 |①---|
口口 |----|
口①①口 |----|
口口口口 |--②-|
33
口口口口 |----|
口口 |--①-|
口口口口 |----|
口口口口 |----|
34
口口口口 |①---|
①① |----|
口口 |----|
口口口口 |--②-|
35
口口口口 |----|
口口口口 |--①-|
口口 |----|
口口口口 |----|
36
口口 |①---|
口口 |----|
口①①口 |----|
口口口口 |--②-|
37
口口口口 |----|
口口 |--①-|
口口口口 |----|
口口口口 |----|
38
口口口口 |①---|
①① |----|
口口 |----|
口口口口 |--②-|
39
口口口口 |----|
口口口口 |--①-|
口口 |----|
口口口口 |----|
40
口口口口 |①---|
口口口口 |----|
口口②口 |②---|
口口①口 |----|
41
口②口口 |①---|
口①口口 |----|
口口口口 |②---|
口口口口 |----|
42
口口①口 |①---|
口口②口 |----|
口口口口 |②---|
口口口口 |----|
43
口口口口 |①---|
口口口口 |----|
口①口口 |②---|
口②口口 |----|
44
口口口口 |①---|
口口口口 |----|
口口②口 |②---|
口口①口 |----|
45
口②口口 |①---|
口①口口 |----|
口口口口 |②---|
口口口口 |----|
46
口口①口 |①---|
口口②口 |----|
口口口口 |②---|
口口口口




口口口口 |--③-|
47
口口口口 |----|
口口口口 |----|
口口口口 |----|
口口口口 |----|
48
口口口口 |----|
口口口口 |----|
|①---|
口口口口 |----|
49
口口口口 |----|
口口口口 |----|
口口口口
口口口口
50
口口口口 |①---|
口口口口 |----|
口口①口 |②---|
口②口口 |----|
51
口口口口 |①---|
口口口口 |----|
口②口口 |②---|
口口①口 |----|
52
口口口口 |〇〇〇〇|
口口口口
口口口口
口口口口

口口口口 |①---|

口口口口
口口口口

口口口口
口口 |--②-|
口口口口 |----|
口口口口 |----|
53
口口口口 |①---|
口②①口 |----|
口口口口 |②---|
口口口口 |----|
54
口口口口 |〇〇〇〇|
口口口口
口口口口
口口口口

|①---|
口口口口
口口口口
口口口口

口口
口口口口 |--②-|
口口口口 |----|
口口口口 |----|
55
口口口口 |〇〇〇〇|
口口口口
口口口口
口口口口

口口口口 |①---|

口口口口
口口口口

口口口口
口 |--②-|
口口口口 |----|
口口口口 |----|
56
口口口口 |①---|
口口口口 |----|
口口②① |②---|
口口口口 |----|
57
口口口口 |①---|
口口口口 |----|
①②口口 |②---|
口口口口 |----|
58
口口口口 |①---|
口口口口 |----|
口口①口 |②---|
口②口口 |----|
59
口口口口 |①---|
口口口口 |----|
口②口口 |②---|
口口①口 |----|
60
口口口口 |〇〇〇〇|
口口口口
口口口口
口口口口

口口口口 |①---|

口口口口
口口口口

口口口口
口口 |--②-|
口口口口 |----|
口口口口 |----|
61
口口口口 |①---|
口②①口 |----|
口口口口 |②---|
口口口口 |----|
62
口口口口 |〇〇〇〇|
口口口口
口口口口
口口口口

|①---|
口口口口
口口口口
口口口口

口口
口口口口 |--②-|
口口口口 |----|
口口口口 |----|
63
口口口口 |〇〇〇〇|
口口口口
口口口口
口口口口

口口口口 |①---|

口口口口
口口口口

口口口口
口 |--②-|
口口口口 |----|
口口口口 |----|
64
口口口口 |①---|
口口口口 |----|
口口②① |②---|
口口口口 |----|
65
口口口口 |①---|
口口口口 |----|
①②口口 |②---|
口口口口 |----|
66
口口口口 |①---|
①②口口 |----|
口口口口 |②---|
口口口口 |----|
67
口口口口 |①---|
口口①② |----|
口口口口 |②---|
口口口口 |----|
68
口口口口 |①---|
口口口口 |----|
口口②① |②---|
口口口口 |----|
69
口口口口 |①---|
口口口口 |----|
②①口口 |②---|
口口口口 |----|
70
口口口口 |①---|
口口口口 |----|
口②口口 |②---|
①口口口 |----|
71
口口口口 |①---|
口口②口 |----|
口口口① |②---|
口口口口 |----|
72
口口 |①---|
口口 |----|
口口
口口

口口
口口口口
口口口口 |----|
口口口口 |②---|
73
口口口 |①---|
口口口 |----|
口口
口口

口口
口口口口
口口口口 |----|
口口口口 |②---|
74
口口口口 |〇〇〇〇|
口口口口
口口口口
口口口口

口口口口 |①---|
|----|
口口口口 |----|
口口口口 |----|
75
口口口口 |----|
口口口口 |----|
口口口口 |----|
口口口口 |----|
76
口口口口 |----|
口口口口 |----|
口口口口 |----|
口口口口 |----|
77
口口口口 |----|
口口口口 |----|
口口口口 |----|
口口口口 |----|
78
口口口口 |①---|
口口 |----|
口口口口 |----|
口口口口

不確定度: 0

最終更新:2017年08月16日 01:46