炉心融解 [2]
iroha

EXTREME

Level: 8
BPM: 165
Notes: 632

1
口口口口 |----|
口口口口 |----|
口口口口 |----|
口口口口 |----|
2
口口口口 |①---|
口口口口 |----|
口口口口 |----|
①口口口 |----|
3
口口口② |--①-|
口口口口 |----|
口口①口 |②---|
口口口口 |----|
4
口口口口 |①②③-|
①口口口 |----|
口③口口 |----|
口口②口 |----|
5
口口口口 |----|
口口口口 |①---|
口口口口 |----|
口口口① |----|
6
口口口口 |----|
口口口口 |----|
口口口口
口口口口
7
口口①口 |①-②-|
①②②① |③④⑤-|
④①口③
口口⑤口

⑪⑦口⑥
口口⑫⑩
口口⑧口 |⑥⑦⑧⑨|
口⑨口口 |⑩⑪⑫-|
8
口②口 |①---|
口口口 |--②-|
⑤④③ |--③-|
①口口 |④-⑤-|
9
口口口口 |①---|
口②口口 |--②-|
⑤④③口 |--③-|
①口口口 |④-⑤-|
10
口②口口 |①---|
口口口口 |--②-|
⑤④③口 |--③-|
①口口口 |④-⑤-|
11
口口口口 |①---|
口②③口 |--②-|
⑥⑤④口 |③-④-|
①口口 |⑤-⑥-|
12
口口②口 |①---|
口口口口 |--②-|
口③④⑤ |--③-|
口① |④-⑤-|
13
口口口口 |①---|
口口②口 |--②-|
口③④⑤ |--③-|
口口① |④-⑤-|
14
口② |①---|
⑤④③口 |--②-|
口口口口 |--③-|
口口口口 |④-⑤-|
15
口④④ |①---|
口口口口 |②---|
①口口② |③---|
口③③口 |④---|
16
口口口口 |①-②-|
②①②口 |③-④-|
口口①④
③口④口

口口⑥口
口⑧口⑥
⑤⑦⑧口 |⑤-⑥-|
口口口口 |⑦-⑧-|
17
①口④④ |--①-|
③口①口 |--②-|
口口口口 |③---|
③②②口 |④---|
18
口口口口 |①-②-|
口②①② |③-④-|
口①④口
③口口④

口口⑥⑥
⑦口⑧口
⑤⑧口口 |⑤-⑥-|
口口口口 |⑦-⑧-|
19
①口③③ |--①-|
口口口① |--②-|
④④口口 |③---|
口②②口 |④---|
20
口口口口 |①-②-|
②①②口 |③-④-|
口口①④
③口④口

口口⑥口
口⑧口⑥
⑤⑦⑧口 |⑤-⑥-|
口口口口 |⑦-⑧-|
21
①口④④ |--①-|
③口①口 |--②-|
口口口口 |③---|
③②②口 |④---|
22
口口口口 |①-②-|
口②①② |③-④-|
口①④口
③口口④

口口⑥⑥
⑦口⑧口
⑤⑧口口 |⑤-⑥-|
口口口口 |⑦-⑧-|
23
①口口口 |--①-|
口口口① |--②-|
③④口③ |③---|
③②②③ |--④-|
24
④④①① |①---|
⑤口口⑤ |②-③-|
②⑥③② |④---|
口口口口 |⑤-⑥-|
25
口口②① |①-②-|
口③⑦口 |③-④-|
④⑧口⑥ |⑤-⑥-|
口口⑤口 |⑦-⑧-|
26
④④①① |①---|
②口⑤② |②-③-|
口⑥③口 |④---|
口口口口 |⑤-⑥-|
27
口口口口 |--①-|
④口口④ |②-③-|
口⑥口① |④---|
⑤③②⑤ |⑤-⑥-|
28
④④①① |①---|
⑤口口⑤ |②-③-|
②⑥③② |④---|
口口口口 |⑤-⑥-|
29
口口②① |①-②-|
口③⑦口 |③-④-|
④⑧口⑥ |⑤-⑥-|
口口⑤口 |⑦-⑧-|
30
④④①① |①---|
②口⑤② |②-③-|
口⑥③口 |④---|
口口口口 |⑤-⑥-|
31
口口口口 |--①-|
口口口口 |②---|
口口口①
口口②口

口口⑤口
③口④③
口口口⑥ |③-④-|
口口口口 |⑤-⑥-|
32
口口口口 |①---|
②口⑤口 |②-③-|
③④①口 |④-⑤-|
口口④口

口口⑥


口口口 |⑥-⑦-|
33
口口口 |----|
③口 |--①-|
口④口 |--②-|
口②口 |③-④-|
34
②口口口 |①---|
口口口口 |②---|
①口口②
口口口口

口⑥口口
口④③⑥
⑤口口口 |③-④-|
口口口口 |⑤-⑥-|
35
口口口口 |--①-|
口口口口 |②-③-|
口②①口
口口

口口⑤口
口口④口
口口口⑥ |--④-|
口口口 |⑤-⑥-|
36
口口口口 |①---|
②口口⑤ |②-③-|
③口①口 |④-⑤-|
口④④口

口⑥口


口口口 |⑥-⑦-|
37
口口口 |----|
口口口 |--①-|
口③ |--②-|
②口口 |③-④-|
38
口口 |①---|
口口口口 |②---|
口口口口
口口①口

口口口

口口口口 |③---|
口口口口

口口口口
口口
④口口口
口口口口 |④-⑤-|
39
口口①① |--①-|
口④③口 |--②-|
④口⑤③ |--③-|
②口⑤口 |④-⑤-|
40
③⑦⑥② |①---|
⑤⑤口⑥ |②-③-|
⑦①口④ |④-⑤-|
口①口④ |⑥-⑦-|
41
④口口口 |①-②-|
口④③口 |③-④-|
口②①③
口②①口

口口口口
⑥口口⑤
口口⑦口 |--⑤-|
⑥口⑦⑤ |⑥-⑦-|
42
②口口② |①---|
口口口口 |②---|
口①口口
口①口口

口⑥⑥口
口④⑤⑤
④⑥⑥③ |③-④-|
口口口③ |⑤-⑥-|
43
口口口① |--①-|
②④④⑤ |②-③-|
⑥口口③ |④-⑤-|
口口⑦口 |⑥-⑦-|
44
③⑦⑥② |①---|
⑤⑤口⑥ |②-③-|
⑦①口④ |④-⑤-|
口①口④ |⑥-⑦-|
45
④口口口 |①-②-|
口④③口 |③-④-|
口②①③
口②①口

口口口口
⑥口口⑤
口口⑦口 |--⑤-|
⑥口⑦⑤ |⑥-⑦-|
46
②口口② |①---|
口口口口 |②---|
口①口口
口①口口

口⑥⑥口
口④⑤⑤
④⑥⑥③ |③-④-|
口口口③ |⑤-⑥-|
47
口口口① |--①-|
|②-③-|
③口口③ |----|
口 |----|
48
口口口口 |----|
口口 |--①-|
口口口口 |----|
口口口 |----|
49
口口口口 |①-②-|
口口口② |③④⑤-|
③⑤口口
①口④①
50
口口 |①---|
口口①口
口口
口口口口


口③口口 |②---|
|③---|
②②口口

口口口
口口口口
口口口
口口④④ |④---|
51
口口 |①---|
口口①口
口口
口口口口

口口口
口口口口 |②-③-|
口②③
口口口口

④口口口
④口口口
口 |--④-|
|--⑤-|
52
口 |①---|

口口口口
口口口口

口④
口口⑤ |--②-|
③口口 |--③-|
口口 |④-⑤-|
53
③口口③ |①---|
口口口口 |②-③-|
口⑤⑥④ |--④-|
②②①① |⑤-⑥-|
54
|①---|

口口口口
口口口口

口⑤
口口口 |--②-|
口④口口 |--③-|
口③口口 |④-⑤-|
55
口口口口 |①---|
②④④口 |②-③-|
口口口③ |--④-|
①⑤⑤口 |--⑤-|
56
口口口口 |①---|
①④③① |②-③-|
⑤①①⑤ |④-⑤-|
②口⑥② |--⑥-|
57
口①⑤口 |①-②-|
③口口④ |③-④-|
⑥②口口 |⑤-⑥-|
口口口⑦ |⑦---|
58
口口 |①---|
口口①口
口口
口口口口


口③口口 |②---|
|③---|
②②口口

口口口
口口口口
口口口
口口④④ |④---|
59
口口 |①---|
口口①口
口口
口口口口

口口口
口口口口 |②-③-|
口②③
口口口口

④口口口
④口口口
口 |--④-|
|--⑤-|
60
口 |①---|

口口口口
口口口口

口④
口口⑤ |--②-|
③口口 |--③-|
口口 |④-⑤-|
61
口口 |①---|
口口口口 |②-③-|
口口口口
②②①①

口口口
口口口口
口口 |--④-|
口口口口

口口口口
口口口口
口⑤口
口口口口 |--⑤-|
62
|①---|

口口口口
口口口口

口⑤
口口口 |--②-|
口④口口 |--③-|
口③口口 |④-⑤-|
63
口口口口 |①---|
②④④口 |②-③-|
口口口③ |--④-|
①⑤⑤口 |--⑤-|
64
口口口口 |①---|
①④③① |②-③-|
⑥①①⑤ |④-⑤-|
②口⑦② |⑥-⑦-|
65
口①⑤口 |①-②-|
③口口④ |③-④-|
⑥②口口 |⑤-⑥-|
口口口⑦ |⑦---|
66
口口口口 |①-②-|
②①②口 |③-④-|
口口①④
③口④口

口口⑥口
口⑧口⑥
⑤⑦⑧口 |⑤-⑥-|
口口口口 |⑦-⑧-|
67
①口④④ |--①-|
③口①口 |--②-|
口口口口 |③---|
③②②口 |④---|
68
口口口口 |①-②-|
口②①② |③-④-|
口①④①
③口口④

口口⑥⑥
⑦口⑧口
⑤⑧口口 |⑤-⑥-|
口口口口 |⑦-⑧-|
69
②①④④ |①-②-|
口①口② |--③-|
⑤⑤口口 |④---|
口③③口 |⑤---|
70
口口口口 |①---|
口口①口
口口口


口③口口
口口口 |②---|
口 |③---|


口口口口
口口口口

口口口口 |④---|
71
口口①口 |①---|
口口

口口口

口口口口
|②---|
|③---|
口③口口

口口口口
口口
口口口口
口口口口 |④---|
72
口口 |①---|
|----|

口口口口

口口

口口口口 |----|
口口口口 |②---|
73
口 |①---|
口 |----|




口口口口
口 |----|
口口口口 |②---|
74
口口口口 |①---|
|----|
|----|
|----|
75
口口口口 |----|
口口口口 |----|
口口口口 |----|
口口口口 |----|
76
口口口口 |----|
口口口口 |----|
口口口口 |----|
口口口口 |----|
77
口口口口 |----|
口口口口 |----|
口口口口 |----|
口口口口 |----|
78
口口口口 |①---|
口口口口 |----|
口口口口 |----|


不確定度: 0

最終更新:2017年08月16日 01:46