拙者はSAMURAI FOOD
S-C-U a.k.a. Food Samurai×A応P

BASIC

Level: 3
BPM: 136
Notes: 251

1
口口口口 |----|
口口口口 |----|
口口口口 |----|
口口口口 |----|
2
口口②① |①---|
口口口口 |----|
口口口口 |②---|
口口口口 |----|
3
②①口口 |①---|
口口口口 |----|
口口口口 |②---|
口口口口 |----|
4
口口口口 |①---|
①②口口 |----|
口口口口 |②---|
口口口口 |----|
5
口口口口 |①---|
口口①② |----|
口口口口 |②---|
口口口口 |----|
6
口口口口 |①---|
口口口口 |----|
口口②① |②---|
口口口口 |----|
7
口口口口 |①---|
口口口口 |----|
②①口口 |②---|
口口口口 |----|
8
口口口口 |①---|
口口口口 |----|
口口口口 |②---|
①②口口 |----|
9
④口口④ |①---|
②口口② |----|
口③③口 |②--③|
口口①口 |--④-|
10
口①①③ |①---|
口②②④ |②---|
口口口口 |③---|
口口口口 |④---|
11
口口口口 |①---|
口口口口 |②---|
口口④① |③---|
口口③② |④---|
12
③②②口 |①---|
④①①口 |②---|
口口口口 |③---|
口口口口 |④---|
13
口口口口 |①---|
口口口口 |②---|
①④口口 |③---|
②③口口 |④---|
14
口②②③ |①---|
口①①④ |②---|
口口口口 |③---|
口口口口 |④---|
15
口口口口 |①---|
口口口口 |②---|
口口④① |③---|
口口③② |④---|
16
④②②③ |①---|
口①①口 |②---|
口口口口 |③---|
口口口口 |④---|
17
口口口口 |①---|
口口口口 |----|
口①①口
口口口口

④口口④
②口口②
口③③口 |②--③|
口口口口 |--④-|
18
口口①口 |①---|
口口②口 |②---|
口口③口 |③---|
口口④口 |④---|
19
口口口口 |①---|
口③③口 |②---|
口②口口 |③---|
口①口口 |----|
20
口①口口 |①---|
口②口口 |②---|
口③口口 |③---|
口④口口 |④---|
21
口口口口 |①---|
口③③口 |②---|
口口②口 |③---|
口口①口 |----|
22
口口①口 |①---|
口口②口 |②---|
口口③口 |③---|
口口④口 |④---|
23
口口口口 |①---|
口③③口 |②---|
口②口口 |③---|
口①口口 |----|
24
③口口② |①---|
口口口口 |----|
口①①口 |②---|
口口口口 |③---|
25
口口口口 |①---|
口①①口 |----|
口①①口 |----|
口②口口 |②---|
26
口口口口 |①---|
口口口口 |----|
口口①口 |----|
口口口口 |----|
27
口口口口 |①---|
口口口口 |----|
口③②口 |②---|
口口①口 |③---|
28
口②口口 |①---|
口③①口 |----|
口口口口 |②---|
口口口口 |③---|
29
口口口口 |①---|
口口口口 |----|
口①口口 |----|
口口②口 |②---|
30
口口口口 |①---|
口②口口 |----|
口①口口 |----|
口口口口 |②---|
31
②口口② |①---|
口口口口 |--②-|
口①口口 |----|
口口口口 |----|
32
口口口口 |①---|
口①②口 |②---|
口③④口 |③---|
口口口口 |④---|
33
①口口① |①---|
口口口口 |----|
口口口口 |----|
口口口口 |----|
34
口①口口 |①---|
口②口口 |②---|
口③口口 |③---|
口④口口 |④---|
35
口口①口 |①---|
口口②口 |②---|
口口③口 |③---|
口口④口 |④---|
36
口口口口 |①---|
口①②口 |②---|
口③④口 |③---|
口口口口 |④---|
37
口口口口 |①---|
口①③③ |②---|
口③③口 |③---|
口②口口 |----|
38
①①③③ |①---|
②②④④ |②---|
口口口口 |③---|
口口口口 |④---|
39
口口口口 |①---|
④口口④ |②---|
口①②口 |③--④|
口③③口 |----|
40
①口口③ |①---|
口②④口 |②---|
口口口口 |③---|
口口口口 |④---|
41
口口口口 |----|
口口②② |①---|
口②②口 |②---|
口①口口 |----|
42
①①③③ |①---|
②②④④ |②---|
口口口口 |③---|
口口口口 |④---|
43
口口口口 |①---|
④口口④ |②---|
口①②口 |③--④|
口③③口 |----|
44
②口口口 |①---|
③①①口 |②---|
④口口口 |③---|
口口口口 |④---|
45
口口口口 |----|
口口②② |①---|
口②②口 |②---|
口①口口 |----|
46
①①③③ |①---|
②②④④ |②---|
口口口口 |③---|
口口口口 |④---|
47
口口口口 |①---|
④口口④ |②---|
口①②口 |③--④|
口③③口 |----|
48
口③②① |①---|
口口口口 |②---|
口④④口 |③---|
口口口口 |④---|
49
口口口口 |----|
口口②② |①---|
口②②口 |②---|
口①口口 |----|
50
①①③③ |①---|
②②④④ |②---|
口口口口 |③---|
口口口口 |④---|
51
口口口口 |①---|
④口口④ |②---|
口①②口 |③--④|
口③③口 |----|
52
③口口② |①---|
口①①口 |②---|
口口④口 |③---|
口口口口 |④---|
53
口口口口 |----|
口口②② |①---|
口②②口 |②---|
口①口口 |----|
54
①②口口 |①---|
口口口口 |----|
口口口口 |②---|
口口口口 |----|
55
口口①② |①---|
口口口口 |----|
口口口口 |②---|
口口口口 |----|
56
口口口口 |①---|
口口②① |----|
口口口口 |②---|
口口口口 |----|
57
口口口口 |①---|
②①口口 |----|
口口口口 |②---|
口口口口 |----|
58
口口口口 |①---|
口口口口 |----|
①②口口 |②---|
口口口口 |----|
59
口口口口 |①---|
口口口口 |----|
口口①② |②---|
口口口口 |----|
60
口口口口 |①---|
口口口口 |----|
口口口口 |②---|
口口②① |----|
61
口口口口 |①---|
口口口口 |----|
口口口口 |②---|
②①口口 |----|
62
口口口口 |①---|
口①①口 |----|
口①①口 |----|
口口口口 |----|

不確定度: 0

最終更新:2017年08月16日 01:23