拙者はSAMURAI FOOD
S-C-U a.k.a. Food Samurai×A応P

ADVANCED

Level: 7
BPM: 136
Notes: 494

1
口口口口 |----|
口口口口 |----|
口口口口 |----|
口口口口 |----|
2
①②③④ |①---|
口口口口 |②---|
口口口口 |③---|
口口口口 |④---|
3
口口口口 |①---|
④③②① |②---|
口口口口 |③---|
口口口口 |④---|
4
口口口口 |①---|
口口口口 |②---|
①②③④ |③---|
口口口口 |④---|
5
口口口口 |①---|
口口口口 |②---|
口口口口 |③---|
④③②① |④---|
6
④③②① |①---|
口口口口 |②---|
口口口口 |③---|
口口口口 |④---|
7
口口口口 |①---|
①②③④ |②---|
口口口口 |③---|
口口口口 |④---|
8
口口口口 |①---|
口口口口 |②---|
④③②① |③---|
口口口口 |④---|
9
④②①④ |--①-|
②口③① |②-③-|
口⑤⑤③ |④--⑤|
⑥口口⑥ |--⑥-|
10
口①①口 |①---|
①口口① |②---|
②口口②
口②②口

③口④口
口⑤口口
口口口口 |--③-|
口口口口 |④-⑤-|
11
口口⑧⑧ |①-②-|
②口③① |③-④-|
口④口⑤ |⑤-⑥-|
口⑥⑦口 |⑦-⑧-|
12
①①口口 |①-②-|
③③②② |③---|
口口口口
口口口口

口⑤口④
口口⑥口
口口口口 |--④-|
口口口口 |⑤-⑥-|
13
⑧⑧口口 |①-②-|
①③口② |③-④-|
⑤口④口 |⑤-⑥-|
口⑦⑥口 |⑦-⑧-|
14
口口①① |①-②-|
②②③③ |③---|
口口口口
口口口口

④口⑤口
口⑥口口
口口口口 |--④-|
口口口口 |⑤-⑥-|
15
口口⑧⑧ |①-②-|
②口③① |③-④-|
口④口⑤ |⑤-⑥-|
口⑥⑦口 |⑦-⑧-|
16
①①口口 |①-②-|
③③②② |③---|
口口口口
口口口口

口⑦⑥口
⑦口口⑥
口⑤口口 |④-⑤-|
口口④口 |⑥-⑦-|
17
①口口① |①-②-|
口口口口 |③-④-|
口口④口
口③②口

口⑥⑤口
⑥口口⑤
口口口口 |⑤--⑥|
口⑦⑦口 |--⑦-|
18
③④②① |①-②-|
⑦⑧⑥⑤ |③-④-|
口口口口 |⑤-⑥-|
口口口口 |⑦-⑧-|
19
⑥口口⑥ |①-②-|
口口口口 |③-④-|
③④②① |⑤-⑥-|
口⑤⑤口 |----|
20
口口口口 |①-②-|
③④②① |③-④-|
⑦⑧⑥⑤ |⑤-⑥-|
口口口口 |⑦-⑧-|
21
口口口口 |①-②-|
⑥口口⑤ |③-④-|
⑤口口⑥ |⑤-⑥-|
③④②① |----|
22
口口口口 |①-②-|
口口口口 |③-④-|
⑦⑧⑥⑤ |⑤-⑥-|
③④②① |⑦-⑧-|
23
口⑥⑤口 |①-②-|
③④②① |③-④-|
口⑥⑤口 |⑤-⑥-|
口⑦⑦口 |-⑦--|
24
②口口② |①-②-|
口①①口 |--③-|
②口③②
口口口口

⑦⑤④口
口口⑥口
口口口口 |④-⑤-|
口口口⑦ |⑥-⑦-|
25
口口口① |①---|
口口口口 |----|
口口③口 |----|
①②口口 |②-③-|
26
②口口口 |①---|
口①口口 |----|
口口口口 |----|
口口口口 |--②-|
27
口口口口 |①---|
①口口口 |----|
口口③口 |②---|
口口②口 |③---|
28
②口口口 |①---|
③口①口 |--②-|
口④口口 |③---|
口口口口 |④---|
29
口口口口 |①---|
口口口口 |----|
口口口口
口口①口

口口口口
口口口口
口口口口 |----|
口③②口 |②-③-|
30
口口口口 |①---|
④口口口 |----|
③口①口 |--②-|
②口口口 |③-④-|
31
①口②② |①---|
口口口口 |--②-|
口口口口 |----|
口口口口 |----|
32
口口口口 |①---|
口口口口 |②---|
③③④④ |③---|
①①②② |④---|
33
①①①① |①---|
口口口口 |----|
口口口口 |----|
口口口口 |----|
34
⑧口口⑦ |①-②-|
⑥口口⑤ |③-④-|
④口口③ |⑤-⑥-|
②口口① |⑦-⑧-|
35
口⑧⑦口 |①-②-|
口⑥⑤口 |③-④-|
口④③口 |⑤-⑥-|
口②①口 |⑦-⑧-|
36
⑧⑯⑮⑦ |①②③④|
⑥⑭⑬⑤ |⑤⑥⑦⑧|
④⑫⑪③ |⑨⑩⑪⑫|
②⑩⑨① |⑬⑭⑮⑯|
37
②口口① |①---|
⑤⑤口③ |②-③-|
⑤⑤④④ |④---|
⑤④④口 |⑤---|
38
口口①① |①---|
④④⑥⑥ |②---|
口口②② |③-④⑤|
③口口⑤ |--⑥-|
39
①口③口 |①-②-|
口口口口 |③-④-|
口②口④
口口口口

⑥口口⑥
口口口口
口口口口 |⑤--⑥|
口⑤⑤口 |----|
40
口口口口 |①--②|
④口口⑤ |--③-|
①④⑤② |④--⑤|
口③③口 |----|
41
①口口口 |----|
④④口② |①-②-|
④④③③ |③---|
④③③口 |④---|
42
口口①① |①-②-|
口口②② |③---|
口口③③
口口口口

口⑤口口
⑤口口口
④口口⑥ |④--⑤|
口④⑥口 |--⑥-|
43
口口口① |①-②-|
口口②口 |③-④-|
口③口口
④口口口

⑥口口⑥
口⑦⑦口
口口口口 |⑤--⑥|
口⑤⑤口 |--⑦-|
44
口④④口 |①-②-|
②口口③ |③-④-|
口①①口
口口口口

口口口口
口⑤⑤口
⑧⑥口⑧ |⑤-⑥-|
口口⑦口 |⑦-⑧-|
45
①口口口 |----|
④④口② |①-②-|
④④③③ |③---|
④③③口 |④---|
46
口口①① |①-②-|
口口②② |③---|
口口③③
口口口口

口⑥⑤口
口口口口
④口⑦口 |④-⑤⑥|
口④口口 |--⑦-|
47
口口口① |①-②-|
口口②口 |③-④-|
口③口口
④口口口

⑥口口⑥
口口口口
口口口口 |⑤--⑥|
口⑤⑤口 |----|
48
④⑤⑤④ |①--②|
口⑤⑤口 |--③-|
口③②① |④---|
口口口口 |⑤---|
49
①口口口 |----|
④④口② |①-②-|
④④③③ |③---|
④③③口 |④---|
50
口口①① |①-②-|
口口②② |③-④-|
口口③③
口口④④

口⑥⑦口
⑥口口⑦
⑤口口口 |⑤--⑥|
口⑤口口 |--⑦-|
51
口口口① |①-②-|
口②口口 |③-④-|
口口③口
④口口口

⑥口口⑥
口⑦⑦口
口口口口 |⑤--⑥|
口⑤⑤口 |--⑦-|
52
口口口口 |①-②-|
③口口② |③-④-|
口①①④
口口口口

口⑦⑥口
口口口口
口⑧口口 |⑤-⑥⑦|
口⑤⑤口 |--⑧-|
53
①口口口 |----|
④④口② |①-②-|
④④③③ |③---|
④③③口 |④---|
54
④③②① |①-②-|
⑤⑥⑦⑧ |③-④-|
口口口口 |⑤-⑥-|
口口口口 |⑦-⑧-|
55
口口口口 |①-②-|
口口口口 |③-④-|
④③②① |⑤-⑥-|
⑤⑥⑦⑧ |⑦-⑧-|
56
④③②① |①-②-|
⑤⑥⑦⑧ |③-④-|
口口口口 |⑤-⑥-|
口口口口 |⑦-⑧-|
57
口口口口 |①-②-|
口口口口 |③-④-|
④③②① |⑤-⑥-|
⑤⑥⑦⑧ |⑦-⑧-|
58
④③②① |①-②-|
⑤⑥⑦⑧ |③-④-|
口口口口 |⑤-⑥-|
口口口口 |⑦-⑧-|
59
口口口口 |①-②-|
口口口口 |③-④-|
④③②① |⑤-⑥-|
⑤⑥⑦⑧ |⑦-⑧-|
60
④③②① |①-②-|
⑤⑥⑦⑧ |③-④-|
口口口口 |⑤-⑥-|
口口口口 |⑦-⑧-|
61
口口口口 |①-②-|
口口口口 |③-④-|
④③②① |⑤-⑥-|
⑤⑥⑦⑧ |⑦-⑧-|
62
①①①① |①---|
口口口口 |----|
口口口口 |----|
口口口口 |----|

不確定度: 0

最終更新:2017年08月16日 01:21