INVISIBLE WORLD
SILKY F

BASIC

Level: 2
BPM: 128
Notes: 230

1
口口口口 |----|
口口口口 |----|
口口口口 |----|
口口口口 |----|
2
口口口口 |--①-|
①②③④ |--②-|
口口口口 |--③-|
口口口口 |--④-|
3
口口口口 |--①-|
口口口口 |--②-|
④③②① |--③-|
口口口口 |--④-|
4
口口口口 |--①-|
①②③④ |--②-|
口口口口 |--③-|
口口口口 |--④-|
5
口口口口 |--①-|
口口口口 |--②-|
④③②① |--③-|
口口口口 |--④-|
6
①口口② |----|
口口口口 |①---|
口口口口 |②---|
口口口口 |----|
7
口口口口 |①---|
口口口口 |②---|
口③③口 |--③-|
②口口① |----|
8
②口口③ |①---|
口①①口 |②---|
口口口口 |③---|
口口口口 |----|
9
口④④口 |①---|
口③③口 |②---|
口②②口 |③---|
口①①口 |④---|
10
口口口口 |----|
①②③口 |①---|
口口口口 |②---|
口口口口 |③---|
11
口口口口 |①---|
口口口① |②---|
口④③② |③---|
口口口口 |④---|
12
口②②口 |①---|
口口口口 |②---|
①口口口 |----|
口口口口 |----|
13
口口口口 |①---|
口口口口 |----|
口①①口 |②---|
口②②口 |----|
14
口口口口 |----|
口③②① |①---|
口口口口 |②---|
口口口口 |③---|
15
口口口口 |①---|
①口口口 |②---|
②③④口 |③---|
口口口口 |④---|
16
口口口口 |----|
口口口口 |①---|
口口口口 |----|
口①①口 |----|
17
口②②口 |①---|
口①①口 |----|
口口口口 |②---|
口口口口 |----|
18
②口口② |①---|
①口口① |----|
口口口口 |②---|
口口口口 |----|
19
口口口口 |①---|
口口口口 |②---|
①②③口 |③---|
口口口口 |----|
20
口口口口 |①---|
口口口口 |----|
口口口① |②---|
口③②① |③---|
21
口口口口 |①---|
口口口口 |----|
口口口口 |----|
①口口口 |----|
22
口口口口 |①---|
口口口口 |----|
①口口① |②---|
②口口② |----|
23
①②③口 |①---|
口口口口 |②---|
口口口口 |③---|
口口口口 |----|
24
口口口① |①---|
口③②① |----|
口口口口 |②---|
口口口口 |③---|
25
口口口口 |①---|
①口口口 |----|
口口口口 |----|
口口口口 |----|
26
①口口② |----|
口口口口 |①---|
口口口口 |②---|
口口口口 |----|
27
口口口口 |①---|
口口口口 |②---|
口③③口 |--③-|
②口口① |----|
28
②口口③ |①---|
口①①口 |②---|
口口口口 |③---|
口口口口 |----|
29
口④④口 |①---|
口③③口 |②---|
口②②口 |③---|
口①①口 |④---|
30
口口口口 |----|
口口口口 |----|
口口口口 |----|
口口口口 |----|
31
口口口口 |----|
①②③口 |①---|
口口口口 |②---|
口口口口 |③---|
32
口口口口 |①---|
口口口① |②---|
口④③② |③---|
口口口口 |④---|
33
口②②口 |①---|
口口口口 |②---|
①口口口 |----|
口口口口 |----|
34
口口口口 |①---|
口口口口 |----|
口①①口 |②---|
口②②口 |----|
35
口口口口 |----|
口③②① |①---|
口口口口 |②---|
口口口口 |③---|
36
口口口口 |①---|
①口口口 |②---|
②③④口 |③---|
口口口口 |④---|
37
②口口② |①---|
口口口口 |----|
口口口口 |②---|
口①①口 |----|
38
口口口口 |①---|
④①①口 |②---|
口②②口 |③---|
口③③口 |④---|
39
口口口口 |①---|
口口口① |----|
口口口口 |②---|
口②②口 |----|
40
①口口① |①---|
②口口② |②---|
③口口③ |③---|
口口口口 |----|
41
口口口口 |①---|
④①②④ |②---|
③口口③ |③---|
口口口口 |④---|
42
①口口① |①---|
②口口口 |----|
口口口口 |----|
口口口口 |②---|
43
口口口口 |①---|
口口口① |----|
口口口口 |②---|
口②②口 |----|
44
①口口① |①---|
②口口② |②---|
③口口③ |③---|
口口口口 |----|
45
口口口口 |①---|
①④④② |②---|
口③③口 |③---|
口口口口 |④---|
46
口①①口 |①---|
口口口口 |----|
口口口口 |----|
口口口口 |----|
47
口口口口 |①---|
①口口② |----|
口口口口 |②---|
口口口口 |----|
48
口口口口 |①---|
口口口口 |----|
①口口② |②---|
口口口口 |----|
49
口②②口 |①---|
口口口口 |----|
口口口口 |②---|
口①①口 |----|
50
口口口口 |①---|
①②③④ |②---|
口口口口 |③---|
口口口口 |④---|
51
口口口口 |①---|
①口口② |----|
口口口口 |②---|
口口口口 |----|
52
口口口口 |①---|
口口口口 |----|
①口口② |②---|
口口口口 |----|
53
口②②口 |①---|
口口口口 |----|
口口口口 |②---|
口①①口 |----|
54
口口口口 |①---|
口口口口 |②---|
④③②① |③---|
口口口口 |④---|
55
口口口口 |----|
口口口口 |----|
口口口口 |----|
口口口口 |----|
56
口口口口 |----|
口口口口 |----|
口口口口 |----|
口口口口 |----|
57
①口口② |----|
口口口口 |①---|
口口口口 |②---|
口口口口 |----|
58
口口口口 |①---|
口④④口 |②---|
口③③口 |--③-|
②口口① |--④-|
59
①口口② |----|
口口口口 |①---|
口口口口 |②---|
口口口口 |----|
60
口④④口 |①---|
口③③口 |②---|
口②②口 |③---|
口①①口 |④---|
61
①口口② |----|
口口口口 |①---|
口口口口 |②---|
口口口口 |----|
62
口口口口 |①---|
口口口口 |②---|
口③③口 |--③-|
②口口① |----|
63
②口口③ |①---|
口①①口 |②---|
口口口口 |③---|
口口口口 |----|
64
③口口③ |①---|
④口口④ |②---|
口②②口 |-③--|
口①①口 |--④-|


不确定度: 0

最終更新:2012年11月11日 16:33