拙者はSAMURAI FOOD
S-C-U a.k.a. Food Samurai×A応P

EXTREME

Level: 9
BPM: 136
Notes: 653

1
口口口口 |----|
口口口口 |----|
口口口口 |----|
口口口口 |----|
2
口⑧口① |①-②-|
②口⑦口 |③-④-|
口⑥口③ |⑤-⑥-|
④口⑤口 |⑦-⑧-|
3
口⑧口① |①-②-|
②口⑦口 |③-④-|
口⑥口③ |⑤-⑥-|
④口⑤口 |⑦-⑧-|
4
⑧口①口 |①-②-|
口②口⑦ |③-④-|
⑥口③口 |⑤-⑥-|
口④口⑤ |⑦-⑧-|
5
⑧口①口 |①-②-|
口②口⑦ |③-④-|
⑥口③口 |⑤-⑥-|
口④口⑤ |⑦-⑧-|
6
口⑧口① |①-②-|
②口⑦口 |③-④-|
口⑥口③ |⑤-⑥-|
④口⑤口 |⑦-⑧-|
7
口⑧口① |①-②-|
②口⑦口 |③-④-|
口⑥口③ |⑤-⑥-|
④口⑤口 |⑦-⑧-|
8
⑧口①口 |①-②-|
口②口⑦ |③-④-|
⑥口③口 |⑤-⑥-|
口④口⑤ |⑦-⑧-|
9
⑥①①⑥ |--①-|
③口口③ |②-③-|
口②②口 |④--⑤|
④⑤④⑤ |--⑥-|
10
口口①口 |①---|
②①②① |②---|
②②①口
②口②口

⑦③④⑥
⑨⑤口⑧
口口口口 |-③④⑤|
口口口口 |⑥⑦⑧⑨|
11
⑧⑥⑤⑦ |①②③④|
口口口口 |⑤⑥⑦⑧|
口②①口
口④③口

口口⑭口
⑭⑫⑪口
口口⑬口 |⑨⑩⑪⑫|
⑩口口⑨ |⑬-⑭-|
12
②口口② |①-②-|
口口口口 |③---|
口口口①
③①口③

⑧④⑤⑦
⑩⑥口⑨
口口口口 |-④⑤⑥|
口口口口 |⑦⑧⑨⑩|
13
⑧⑥⑤⑦ |①②③④|
口口口口 |⑤⑥⑦⑧|
口②①口
口④③口

口口口口
⑩⑫⑪⑨
口⑭⑬口 |⑨⑩⑪⑫|
⑭口口口 |⑬-⑭-|
14
②口口口 |①-②-|
③口口② |③---|
①口口③
口①口口

⑧④⑤⑦
口⑥口⑨
口口口口 |-④⑤⑥|
口口口口 |⑦⑧⑨-|
15
口⑧⑦口 |①②③④|
口口口口 |⑤⑥⑦⑧|
口②①口
⑥④③⑤

口口口口
⑩⑭口⑨
⑫口⑭⑪ |⑨⑩⑪⑫|
口口⑬口 |⑬-⑭-|
16
②口口③ |①-②-|
口口①口 |③---|
口①口口
③口口②

⑦口口⑧
口⑥口口
口口⑤口 |-④⑤⑥|
⑧④口⑦ |⑦-⑧-|
17
口口口口 |①-②-|
①口口① |③-④-|
①口④①
口③②口

⑤口口⑥
口口⑧口
口口口口 |⑤--⑥|
⑥⑦⑦⑤ |--⑦⑧|
18
⑤口口口 |①②③④|
口①口⑥ |⑤⑥⑦⑧|
⑦③②④
口口口⑧

口⑩口⑨
口⑭⑬口
口⑯⑮口 |⑨⑩⑪⑫|
⑫口⑪口 |⑬⑭⑮⑯|
19
②⑧①⑦ |①②③④|
④口口③ |⑤⑥⑦⑧|
⑥⑩⑨⑤ |⑨-⑩-|
口⑨⑩⑪ |---⑪|
20
⑤口⑥口 |①②③④|
口⑦口④ |⑤⑥⑦⑧|
③口⑧②
①口口口

口⑪口⑩
口口⑫口
⑬口口口 |⑨⑩⑪⑫|
⑮⑨⑯⑭ |⑬⑭⑮⑯|
21
口口②口 |①②③④|
①⑤⑥口 |⑤⑥⑦⑧|
口⑦⑧④
口③口口

⑨⑨口口
口口口口
口口口口 |⑨-⑩-|
口⑪⑩⑩ |---⑪|
22
②口③口 |①-②③|
口④①⑤ |④⑤⑥⑦|
口⑥口口
口口⑦口

口⑧口⑨
⑩口⑪口
⑫口⑬口 |⑧⑨⑩⑪|
口⑭口⑮ |⑫⑬⑭⑮|
23
①③②④ |①②③④|
⑦口口⑧ |⑤⑥⑦⑧|
口口口口
⑤口⑥口

⑪口口⑫
口⑨⑩口
⑬⑨⑩口 |⑨-⑩-|
口口口口 |-⑪⑫⑬|
24
口②②口 |①-②-|
②⑤口② |-③④⑤|
口③④口
口①①口

口⑫⑫⑥
口口⑦口
⑧口口⑩ |⑥⑦⑧⑨|
口⑨⑪口 |⑩⑪⑫-|
25
③口口② |①--②|
①③②① |--③-|
口①①口
口口口口

口口口口
口口口口
口⑥口口 |④---|
⑤④④口 |⑤-⑥-|
26
口③口② |①---|
口口①口 |----|
口口口口 |----|
口口口口 |--②③|
27
口口口口 |①---|
口口口口 |----|
口口口① |②---|
口②③口 |③---|
28
口口口口 |①---|
口②口① |--②③|
口口③口
口口口口

口口口口
口口口⑤
口口口口 |④---|
口④口口 |⑤---|
29
口②口口 |①-②-|
口④③口 |③-④-|
口⑥⑤⑧ |⑤-⑥-|
口口⑦① |⑦-⑧-|
30
①口口口 |①---|
②口口① |②---|
口口口口
口口口口

口口口口
口口⑤④
③口口⑥ |③-④-|
⑤口口口 |⑤-⑥-|
31
①口③③ |①---|
②口口口 |②-③-|
④口①口 |④---|
⑤口口口 |⑤---|
32
①口口口 |①---|
②口口口 |②---|
口口②①
口口①②

口口③口
口口口③
③④口口 |③---|
④口④口 |④---|
33
①口口① |①---|
口②口口 |②---|
口④③口 |③---|
口口口口 |④---|
34
⑧口口④ |①-②-|
⑦口口③ |③-④-|
⑥口口② |⑤-⑥-|
⑤口口① |⑦-⑧-|
35
口⑧④口 |①-②-|
口⑦③口 |③-④-|
口⑥②口 |⑤-⑥-|
口⑤①口 |⑦-⑧-|
36
⑯⑮⑧⑦ |①②③④|
⑭⑬⑥⑤ |⑤⑥⑦⑧|
⑫⑪④③ |⑨⑩⑪⑫|
⑩⑨②① |⑬⑭⑮⑯|
37
⑨⑨口⑤ |①---|
⑨③⑥① |②-③④|
⑨⑨口⑦ |⑤⑥⑦⑧|
⑨④⑧② |⑨---|
38
口口①② |①---|
口口②① |②---|
口口口口
口口口口

口④口⑥
④口⑥口
口③口⑤ |③-④⑤|
③口⑤口 |--⑥-|
39
⑥口①⑥ |①-②-|
口②口口 |③-④-|
口口口⑤ |⑤--⑥|
④口⑤③ |----|
40
口④⑤口 |①--②|
④③③⑤ |--③-|
①①②② |④--⑤|
口①②口 |----|
41
⑧⑧口④ |----|
⑧②⑤口 |①-②③|
⑧⑧口⑥ |④⑤⑥⑦|
⑧③⑦① |⑧---|
42
口口①② |①-②-|
口②口① |③---|
口口③口
口口口③

⑤口⑥口
口口口口
口⑤口⑥ |④--⑤|
④口口口 |--⑥-|
43
口①⑦② |①-②-|
⑤⑦口⑥ |③-④-|
⑤口口⑥ |⑤--⑥|
③口④口 |--⑦-|
44
口①口口 |①-②-|
口口①口 |③-④-|
口②③口
口④口口

口⑧⑧口
口⑦⑦口
口口口口 |⑤-⑥-|
⑥口⑤⑥ |⑦-⑧-|
45
⑧⑧口④ |----|
⑧②⑤口 |①-②③|
⑧⑧口⑥ |④⑤⑥⑦|
⑧③⑦① |⑧---|
46
口口①② |①-②-|
口②口① |③---|
口口③口
口口口③

⑦口⑦口
口口⑤口
口⑥口口 |④-⑤⑥|
口④④口 |--⑦-|
47
⑤口口⑤ |①-②-|
口②口① |③-④-|
④口③口 |⑤--⑥|
⑥口口⑥ |----|
48
③②②③ |①--②|
①④④① |--③-|
④⑤⑤④ |④---|
口④④口 |⑤---|
49
⑧⑧口④ |----|
⑧②⑤口 |①-②③|
⑧⑧口⑥ |④⑤⑥⑦|
⑧③⑦① |⑧---|
50
④④①② |①-②-|
口②口① |③-④-|
口口③口
口口口③

口口口口
口口口口
⑦⑤口⑥ |⑤--⑥|
⑥口⑤⑦ |--⑦-|
51
口口①口 |①-②-|
口口②口 |③-④-|
口口③口
口口④口

⑥口口⑦
口⑥⑦口
⑤口口口 |⑤--⑥|
口⑤口口 |--⑦-|
52
⑥⑥口口 |①②③④|
②口口③ |⑤-⑥-|
口④⑤①
口口①口

口口口口
口⑧⑨口
口口口口 |⑦-⑧⑨|
口⑦⑩口 |--⑩-|
53
⑧⑧口④ |----|
⑧②⑤口 |①-②③|
⑧⑧口⑥ |④⑤⑥⑦|
⑧③⑦① |⑧---|
54
⑧口④口 |①-②-|
口⑥口② |③-④-|
⑦口③口 |⑤-⑥-|
口⑤口① |⑦-⑧-|
55
口④口⑧ |①-②-|
②口⑥口 |③-④-|
口③口⑦ |⑤-⑥-|
①口⑤口 |⑦-⑧-|
56
①口⑤口 |①-②-|
口②口⑥ |③-④-|
③口⑦口 |⑤-⑥-|
口④口⑧ |⑦-⑧-|
57
口⑤口① |①-②-|
⑥口②口 |③-④-|
口⑦口③ |⑤-⑥-|
⑧口④口 |⑦-⑧-|
58
口口②① |①-②-|
口口④③ |③-④-|
口口⑥⑤ |⑤-⑥-|
口口⑧⑦ |⑦-⑧-|
59
①②口口 |①-②-|
③④口口 |③-④-|
⑤⑥口口 |⑤-⑥-|
⑦⑧口口 |⑦-⑧-|
60
⑦②③⑥ |①-②-|
口④口⑧ |③-④-|
口口口口 |⑤-⑥-|
口⑤口① |⑦-⑧-|
61
口①②口 |①-②-|
口③④口 |③-④-|
口⑤⑥口 |⑤-⑥-|
口⑦⑧口 |⑦-⑧-|
62
①①①① |①---|
口①①口 |----|
口口口口 |----|
口口口口 |----|

不確定度: 0

最終更新:2017年08月16日 01:19