椀・of・Relaxation
A応P

BASIC

Level: 3
BPM: 96
Notes: 215

實際BPM: 192
1
口口口口 |----|
口口口口 |----|
口口口口 |----|
口口口口

口口口口 |----|
口口口口 |----|
口口口口 |----|
口口口口
2
口口口口 |①---|
口①①口 |②---|
口②②口 |----|
口口口口

口口口口 |----|
口口口口 |----|
口口口口 |----|
口口口口
3
口口口口 |①---|
口①①口 |②---|
口②②口 |----|
口口口口

口口口口 |----|
口口口口 |----|
口口口口 |----|
口口口口
4
口口口口 |①---|
口①①口 |②---|
口②②口 |----|
口口口口

口口口口 |----|
口口口口 |----|
口口口口 |----|
口口口口
5
口口口口 |----|
口口口口 |----|
口口口口 |----|
口口口口

口口口口 |----|
口口口口 |----|
口口口口 |----|
口口口口
6
①口口② |①---|
③口口口 |②---|
口口口口 |③---|
口口口口

口口口口 |④---|
口口口④ |⑤---|
⑤口口⑥ |⑥---|
口口口口
7
口口口口 |①---|
口口口口 |----|
口①①口 |----|
口口口口

口口口口 |②---|
口口口口 |----|
口口口口 |----|
口②②口
8
②口口① |①---|
口口口③ |②---|
口口口口 |③---|
口口口口

口口口口 |④---|
④口口口 |⑤---|
⑥口口⑤ |⑥---|
口口口口
9
口口口口 |①---|
口口口口 |----|
口口口口 |----|
口①①口

口口口口 |②---|
口口口口 |----|
口②②口 |----|
口口口口
10
①口口② |①---|
③口口口 |②---|
口口口口 |③---|
口口口口

口口口口 |④---|
口口口④ |⑤---|
⑤口口⑥ |⑥---|
口口口口
11
口口口口 |①---|
口口口口 |----|
口①①口 |----|
口口口口

②口口口 |②---|
口③口口 |③---|
口口④口 |④---|
口口口口
12
口口口口 |①---|
①口口① |----|
口口口口 |----|
口口口口

口②②口 |②---|
口口口口 |----|
口口口口 |----|
口口口口
13
口口口口 |①---|
口①②口 |②---|
口③口口 |③---|
口口口口

⑤口口⑤ |④---|
④口口④ |⑤---|
口口口口 |----|
口口口口
14
口①口口 |①---|
口口口口 |----|
口口口口 |----|
口口口口

口口口口 |----|
口口口口 |----|
口口口口 |----|
口口口口
15
口口口口 |①---|
口①口口 |----|
口口口口 |----|
口口口口

口口口口 |----|
口口口口 |----|
口口口口 |----|
口口口口
16
口口口口 |①---|
口口口口 |----|
口①口口 |----|
口口口口

口口口口 |----|
口口口口 |----|
口口口口 |----|
口口口口
17
口口口口 |①---|
口口口口 |----|
口口口口 |----|
口①口口

口口口口 |----|
口口口口 |----|
口口口口 |----|
口口口口
18
口口口口 |①---|
口口口口 |----|
口口口① |----|
口口口口

口口口口 |②---|
口口口口 |----|
口口②口 |----|
口口口口
19
口口口口 |①---|
口口口口 |----|
口①口口 |----|
口口口口

口口口口 |②---|
口口口口 |----|
②口口口 |----|
口口口口
20
口口口口 |①---|
口口口口 |----|
口口口口 |----|
口①①口

口口口口 |----|
口口口口 |----|
口口口口 |----|
口口口口
21
口口口口 |----|
口口口口 |----|
口口口口 |----|
口口口口

口口口口 |----|
口口口口 |----|
口口口口 |----|
口口口口
22
口口口口 |①---|
①口口口 |----|
口口口口 |----|
口口口口

口口口口 |②---|
口②口口 |----|
口口口口 |----|
口口口口
23
口口口口 |①---|
口口①口 |----|
口口口口 |----|
口口口口

口口口口 |②---|
口口口② |----|
口口口口 |----|
口口口口
24
口①①口 |①---|
口口口口 |----|
口口口口 |----|
口口口口

口口口口 |----|
口口口口 |----|
口口口口 |----|
口口口口
25
口口口口 |----|
口口口口 |----|
口口口口 |----|
口口口口

口口口口 |----|
口口口口 |----|
口口口口 |----|
口口口口
26
口①②口 |①---|
口③口口 |②---|
口口口口 |③---|
口口口口

口口口口 |④---|
口口④口 |⑤---|
口⑤⑥口 |⑥---|
口口口口
27
口口口口 |①---|
①口口① |----|
口口口口 |----|
口口口口

口口口口 |----|
口口口口 |----|
口口口口 |----|
口口口口
28
口①②口 |①---|
口③口口 |②---|
口口口口 |③---|
口口口口

口口口口 |④---|
口口④口 |⑤---|
口⑤⑥口 |⑥---|
口口口口
29
口口口口 |①---|
①口口① |----|
口口口口 |----|
口口口口

口口口口 |----|
口口口口 |----|
口口口口 |----|
口口口口
30
口口口口 |①---|
口①②口 |②---|
口③口口 |③---|
口口口口

口口口口 |④---|
口口口口 |⑤---|
⑤口④⑥ |⑥---|
口口口口
31
③口口口 |①---|
①口口② |②---|
口口口口 |③---|
口口口口

口口口④ |④---|
口口口口 |----|
口口口口 |----|
口口口口
32
口①①口 |①---|
口口口口 |----|
口口口口 |----|
口口口口

口口口口 |②---|
口②②口 |----|
口口口口 |----|
口口口口
33
口口口口 |①---|
口口口口 |----|
口①①口 |----|
口口口口

口口口口 |②---|
口口口口 |----|
口口口口 |----|
口②②口
34
口口口口 |①---|
①口口① |----|
口口口口 |----|
口口口口

口口口口 |----|
口口口口 |----|
口口口口 |----|
口口口口
35
口口口口 |①---|
①口口口 |----|
口口口口 |----|
口口口口

口口口口 |②---|
口口口② |----|
口口口口 |----|
口口口口
36
口口口口 |①---|
口口口口 |----|
①口口口 |----|
口口口口

口口口口 |②---|
口口口口 |----|
口口口② |----|
口口口口
37
口口口口 |①---|
口口口口 |----|
口口口口 |----|
①口口口

口口口口 |②---|
口口口口 |----|
口口口口 |----|
口口口②
38
口口口口 |①---|
口①①口 |----|
口口口口 |----|
口口口口

口口口口 |----|
口口口口 |----|
口口口口 |----|
口口口口
39
口口口口 |①---|
口口口口 |----|
口①①口 |----|
口口口口

口口口口 |----|
口口口口 |----|
口口口口 |----|
口口口口
40
口口口口 |①---|
口口口口 |----|
①口口① |----|
口口口口

口口口口 |----|
口口口口 |----|
口口口口 |----|
口口口口
41
口口口口 |①---|
①口口① |----|
口口口口 |----|
口口口口

口口口口 |----|
口口口口 |----|
口口口口 |----|
口口口口
42
口口口口 |①---|
口①①口 |----|
口口口口 |----|
口口口口

口口口口 |----|
口口口口 |----|
口口口口 |----|
口口口口
43
口口口口 |①---|
口口口口 |----|
口①①口 |----|
口口口口

口口口口 |----|
口口口口 |----|
口口口口 |----|
口口口口
44
口口口口 |①---|
口口口口 |----|
①口口① |----|
口口口口

口口口口 |----|
口口口口 |----|
口口口口 |----|
口口口口
45
口口口口 |①---|
①口口① |----|
口口口口 |----|
口口口口

口口口口 |----|
口口口口 |----|
口口口口 |----|
口口口口
46
①口口② |①---|
③口口口 |②---|
口口口口 |③---|
口口口口

口口口口 |④---|
口口口④ |⑤---|
⑤口口⑥ |⑥---|
口口口口
47
口口口口 |①---|
口口口口 |----|
口①①口 |----|
口口口口

口口口口 |②---|
口口口口 |----|
口口口口 |----|
口②②口
48
②口口① |①---|
口口口③ |②---|
口口口口 |③---|
口口口口

口口口口 |④---|
④口口口 |⑤---|
⑥口口⑤ |⑥---|
口口口口
49
口口口口 |①---|
口口口口 |----|
口口口口 |----|
口①①口

口口口口 |②---|
口口口口 |----|
口②②口 |----|
口口口口
50
①口口② |①---|
③口口口 |②---|
口口口口 |③---|
口口口口

口口口口 |④---|
口口口④ |⑤---|
⑤口口⑥ |⑥---|
口口口口
51
口口口口 |①---|
口口口口 |----|
口①①口 |----|
口口口口

②口口口 |②---|
口③口口 |③---|
口口④口 |④---|
口口口口
52
口口口口 |①---|
①口口① |----|
口口口口 |----|
口口口口

口口口口 |②---|
口口口口 |----|
口②②口 |----|
口口口口
53
口口口口 |①---|
①②③口 |②---|
口口口口 |③---|
口口口口

口口口口 |④---|
口口口④ |⑤---|
口口⑥⑤ |⑥---|
口口口口
54
①口口② |①---|
③口口口 |②---|
口口口口 |③---|
口口口口

口口口口 |④---|
口口口④ |⑤---|
⑤口口⑥ |⑥---|
口口口口
55
口口口口 |①---|
口①②口 |②---|
口③口口 |③---|
口口口口

口口口口 |④---|
④口口④ |----|
口口口口 |----|
口口口口
56
②口口① |①---|
口口口③ |②---|
口口口口 |③---|
口口口口

口口口口 |④---|
④口口口 |⑤---|
⑥口口⑤ |⑥---|
口口口口
57
口口口口 |①---|
口②①口 |②---|
口口③口 |③---|
口口口口

口口口口 |④---|
④口口④ |----|
口口口口 |----|
口口口口
58
①②③口 |①---|
口口口口 |②---|
口口口口 |③---|
口口口口

口口口④ |④---|
口口⑤口 |⑤---|
口⑥口口 |⑥---|
口口口口
59
口口口口 |①---|
①口口① |----|
口口口口 |----|
口口口口

②口口口 |②---|
口③口口 |③---|
口口④口 |④---|
口口口口
60
口口口口 |①---|
①②②① |----|
口口口口 |②---|
口口口口

口③③口 |③---|
口口口口 |----|
口口口口 |----|
口口口口
61
口口口口 |①---|
口①②口 |②---|
口③口口 |③---|
口口口口

口口口口 |④---|
⑤口口⑤ |⑤---|
④口口④ |----|
口口口口

不確定度: 0

最終更新:2017年08月16日 01:17