椀・of・Relaxation
A応P

ADVANCED

Level: 7
BPM: 96
Notes: 421

實際BPM: 192
1
口口口口 |----|
口口口口 |----|
口口口口 |----|
口口口口

口口口口 |----|
口口口口 |----|
口口口口 |----|
口口口口
2
①口口① |①---|
③口口口 |②---|
口口口口 |③---|
口②②口

口⑦⑧口 |④---|
口⑤⑥口 |⑤-⑥-|
口④口口 |⑦-⑧-|
口口口口
3
①口口① |①---|
口口口③ |②---|
口口口口 |③---|
口②②口

口口⑦口 |④---|
口⑥⑤口 |⑤-⑥-|
口口④口 |⑦---|
口口口口
4
①口口① |①---|
③口口口 |②---|
口口口口 |③---|
口②②口

口⑦⑧口 |④---|
口⑤⑥口 |⑤-⑥-|
口④口口 |⑦-⑧-|
口口口口
5
①口口② |①-②-|
③口口④ |③-④-|
⑤口口⑥ |⑤-⑥-|
口口口口

口口口⑧ |⑦---|
口口⑧口 |----|
口口口口 |⑧---|
⑦口口口
6
口口①口 |①---|
口③口① |--②-|
口口口口 |--③-|
口②②口

口④口口 |④---|
④口⑤口 |⑤---|
口⑤口⑥ |⑥---|
口口⑥口
7
口口①① |①---|
口③口口 |--②-|
口②④口 |③-④-|
口口口口

口口口口 |⑤---|
口口⑤口 |----|
口口口口 |----|
口口口口
8
口口口口 |①---|
口口口口 |--②-|
②④口③ |③-④-|
口①①口

口口⑤口 |⑤---|
口⑥口⑤ |⑥---|
⑦口⑥口 |⑦---|
口⑦口口
9
①①口口 |①---|
口③口口 |--②-|
口②④口 |③-④-|
口口口口

口口口口 |⑤---|
口口⑤口 |----|
口口口口 |----|
口口口口
10
口口口口 |①---|
④口口口 |--②-|
②口口③ |③-④-|
口①①口

⑦⑥⑤⑦ |⑤---|
口口口口 |⑥---|
口⑤⑥口 |⑦---|
口口口口
11
口口口口 |①---|
口①①口 |----|
口口口口 |----|
口口口口

②④④③ |②---|
口口口口 |③---|
口口口口 |④---|
③口口②
12
口口口口 |①---|
②口口③ |----|
口口口口 |②-③-|
口①①口

④口口④ |④---|
口④④口 |----|
口口口口 |----|
口口口口
13
①口口② |----|
③口口④ |①-②-|
口口口口 |③-④-|
口口口口

口口口口 |⑤---|
口⑤⑤口 |⑥---|
⑥⑥⑥⑥ |----|
口⑤⑤口
14
①口口口 |①---|
口口口口 |----|
口口②口 |②---|
口口口口

口口④口 |③---|
口口口口 |----|
口③口口 |④---|
口口口口
15
口口口① |①---|
口口口口 |----|
口②口口 |②---|
口口口口

口④口口 |③---|
口口口口 |----|
口口③口 |④---|
口口口口
16
①口口口 |①---|
口②③口 |②---|
口口口口 |③---|
口口口口

口口口口 |④---|
口口口口 |⑤---|
口④⑤口 |⑥---|
口⑥口口
17
口口口口 |①---|
口口②口 |----|
口口口口 |②---|
口口①口

口口口④ |③---|
口③口④ |----|
口口口口 |④---|
口口口口
18
②口口口 |①---|
②口口口 |----|
口口①口 |②---|
口口①口

口口口④ |③---|
口口口④ |----|
口③口口 |④---|
口③口口
19
口口口口 |①---|
口口口口 |--②-|
②口①③ |③-④-|
④口①口

口口口口 |⑤---|
口口⑦口 |⑥---|
口⑥口口 |⑦---|
口口口⑤
20
口口口① |①---|
口口口口 |----|
口口口口 |----|
口口口口

口口口口 |----|
口口口口 |----|
口口口口 |----|
口口口口
21
口口口口 |----|
口口口口 |----|
口口口口 |----|
口口口口

①口口口 |----|
①口口口 |----|
口口口口 |①---|
口口口口
22
口口口② |①---|
口口口② |----|
口①口口 |②---|
口①口口

④口口口 |③---|
④口口口 |----|
口口③口 |④---|
口口③口
23
口口口口 |①---|
口口口口 |--②-|
③①口② |③-④-|
口①口④

口口口口 |⑤---|
口⑦口口 |⑥---|
口口⑥口 |⑦---|
⑤口口口
24
①口口口 |①---|
口口口口 |----|
口口口口 |----|
口口口口

口口口口 |----|
口口口口 |----|
口口口口 |----|
口口口口
25
口口口口 |----|
口口口口 |----|
口口口口 |----|
口口口口

口口口口 |----|
口口口① |----|
口口口口 |①---|
口口口口
26
口口口口 |①---|
②口口口 |----|
口口口口 |②---|
口口口①

口口口口 |③---|
口⑥口口 |--④-|
口④⑤口 |⑤-⑥-|
③口口口
27
口口①口 |①---|
口口口口 |----|
口口口口 |----|
口口口口

口口口口 |----|
口口口② |----|
口口口口 |②---|
口口口口
28
口口口口 |①---|
②口口口 |----|
③口口口 |②-③-|
口口口①

口口口口 |④---|
口口口口 |--⑤-|
口⑤⑥口 |⑥---|
④口口口
29
口口①口 |①---|
口口口口 |----|
口口口口 |----|
口口口口

口口口口 |----|
口口口② |----|
口口口③ |②-③-|
口口口口
30
口口口口 |①---|
②口口口 |----|
③口口口 |②-③-|
口口口①

口口口口 |④---|
口口口口 |--⑤-|
口⑤⑥口 |⑥---|
④口口口
31
口口①口 |①---|
②口口③ |--②-|
④口口口 |③-④-|
口口口口

口口口口 |⑤---|
口口口口 |----|
口口⑥⑤ |⑥---|
口⑥口口
32
①④口③ |①---|
口口②口 |--②-|
口口口口 |③-④-|
口口口口

口口⑤口 |⑤---|
口口口口 |⑥---|
口⑥⑥口 |⑦---|
口⑦⑦口
33
①口口口 |①---|
②口口③ |--②-|
④口口口 |③-④-|
口口口口

⑥口口口 |⑤---|
口⑦口口 |⑥---|
口口口⑤ |⑦---|
口口口口
34
口口口口 |①-②-|
①口口① |③-④-|
口④⑤口 |⑤---|
口②③口

口口口口 |--⑥-|
⑥口口⑦ |⑦-⑧-|
口口口口 |----|
口⑧⑧口
35
口口口口 |--①-|
口③④口 |②-③-|
口①②口 |④---|
口口口口

口⑦⑦口 |--⑤-|
口口口口 |⑥-⑦-|
⑤口口⑥ |----|
口口口口
36
口口口口 |--①-|
口①②口 |②-③-|
口③④口 |④---|
口口口口

口口口口 |--⑤-|
⑤口口⑥ |⑥-⑦-|
口口口口 |----|
口⑦⑦口
37
口口口口 |--①-|
口③④口 |②-③-|
口①②口 |④---|
口口口口

口⑦⑦口 |--⑤-|
口口口口 |⑥-⑦-|
⑤口口⑥ |----|
口口口口
38
口口口① |①---|
口口口口 |----|
口口口口 |----|
口口口口

口口口口 |----|
口②口口 |----|
口口③口 |②-③-|
口口口口
39
口口口口 |①---|
口口口口 |----|
口口口口 |----|
口①口口

口口口② |----|
口口口口 |----|
口口口口 |②---|
口口口口
40
①口口口 |①---|
口口口口 |----|
口口口口 |----|
口口口口

口口口口 |----|
口口②口 |----|
口③口口 |②-③-|
口口口口
41
口口口口 |①---|
口口口口 |----|
口口口口 |----|
口口①口

口②口口 |----|
口口口口 |----|
口口口口 |②---|
口口口口
42
口口①① |①---|
口口口口 |----|
口口口口 |----|
口口口口

口口口口 |----|
口②口口 |----|
口口③口 |②-③-|
口口口口
43
口口口口 |①---|
口口口口 |----|
口口口口 |----|
口①口口

口口口口 |----|
口口口口 |----|
口③口口 |②-③-|
口口②口
44
口口口口 |①---|
①口①口 |----|
口口口口 |----|
口口口口

口口口口 |----|
口口口口 |----|
口口口口 |----|
口口口口
45
口口口口 |----|
口口口口 |----|
口口口口 |----|
口口口口

口口口① |----|
口口①口 |----|
口口口口 |①---|
口口口口
46
口口①口 |①---|
口③口① |--②-|
口口口口 |--③-|
口②②口

口④口口 |④---|
④口⑤口 |⑤---|
口⑤口⑥ |⑥---|
口口⑥口
47
口口①① |①---|
口③口口 |--②-|
口②④口 |③-④-|
口口口口

口口口口 |⑤---|
口口⑤口 |----|
口口口口 |----|
口口口口
48
口口口口 |①---|
口口口口 |--②-|
②④口③ |③-④-|
口①①口

口口⑤口 |⑤---|
口⑥口⑤ |⑥---|
⑦口⑥口 |⑦---|
口⑦口口
49
①①口口 |①---|
口②④口 |--②-|
口③口口 |③-④-|
口口口口

口口口口 |⑤---|
口口口口 |----|
口口⑤口 |----|
口口口口
50
口口口口 |①---|
④口口口 |--②-|
②口口③ |③-④-|
口①①口

⑦⑥⑤⑦ |⑤---|
口口口口 |⑥---|
口⑤⑥口 |⑦---|
口口口口
51
口口口口 |①---|
口①①口 |----|
口口口口 |----|
口口口口

②④④③ |②---|
口口口口 |③---|
口口口口 |④---|
③口口②
52
口口口口 |①---|
②口口③ |----|
口口口口 |②-③-|
口①①口

口口口口 |④---|
口④④口 |----|
④口口④ |----|
口口口口
53
口口口口 |----|
①口口② |①-②-|
③口口④ |③-④-|
口口口口

口⑨口⑨ |⑤-⑥-|
口⑤⑥口 |⑦-⑧-|
口⑦⑧口 |⑨---|
口口口口
54
口口口口 |①---|
口口③口 |--②-|
口②口② |--③-|
②①②①

口口④口 |④---|
口⑤口④ |⑤---|
⑥口⑤口 |⑥---|
口⑥口口
55
①①口口 |①---|
口口④口 |--②-|
口口②③ |③-④-|
口口口口

⑥口口口 |⑤---|
⑦口口⑤ |⑥---|
口口口口 |⑦---|
口口口口
56
口口①① |①---|
口④口口 |--②-|
口②口③ |③-④-|
口口口口

口⑥口口 |⑤---|
⑥口⑦⑤ |⑥---|
口⑦口口 |⑦---|
口口口口
57
口口口口 |①---|
④口口口 |--②-|
②口③① |③-④-|
口口①口

口口口⑥ |⑤---|
口口⑤⑦ |⑥---|
口口口口 |⑦---|
口口口口
58
口口①口 |①---|
口②③口 |--②-|
口④口口 |③-④-|
口①口口

口⑥⑦口 |⑤---|
⑥口口⑦ |⑥---|
口口⑤口 |⑦---|
口口口口
59
口口口① |①---|
口口①口 |----|
口①口口 |----|
①口口口

口口②口 |②---|
④口口③ |③---|
③口口④ |④---|
口②口口
60
①口口口 |①---|
口①④口 |--②-|
口③①口 |③-④-|
口口②①

口⑤⑤口 |⑤---|
⑤口口⑤ |----|
口口口口 |----|
口口口口
61
①口口② |----|
③口口④ |①-②-|
口口口口 |③-④-|
口口口口

口口口口 |⑤---|
口⑤⑤口 |⑥---|
⑥⑥⑥⑥ |----|
口⑤⑤口

不確定度: 0

最終更新:2017年08月16日 01:13