椀・of・Relaxation
A応P

EXTREME

Level: 9
BPM: 96
Notes: 739

實際BPM: 192
1
口口口口 |----|
口口口口 |----|
口口口口 |----|
口口口口

口口口口 |----|
口口口口 |----|
口口口口 |----|
口口口口
2
①口口口 |①---|
口②②① |②---|
①②②口 |③-④-|
口③④①

口⑨⑩⑧ |⑤-⑥-|
⑦口口口 |⑦-⑧-|
口口口⑥ |⑨-⑩-|
⑤口口口
3
①口口口 |①---|
口②②① |②---|
①②②口 |③-④-|
口③④①

口⑨⑧口 |⑤-⑥-|
⑦口口口 |⑦-⑧-|
口口口⑥ |⑨---|
⑤口口口
4
①口口口 |①---|
口②②① |②---|
①②②口 |③-④-|
口③④①

口口口⑧ |⑤-⑥-|
⑦口口口 |⑦-⑧-|
口⑨⑩⑥ |⑨-⑩-|
⑤口口口
5
⑤口⑥口 |①-②-|
口口口④ |③-④-|
③口口口 |⑤-⑥-|
口①②口

口⑦口⑧ |⑦---|
口⑧口口 |----|
口口口口 |⑧---|
口口口口
6
口口②口 |①---|
①口口③ |--②-|
口口口① |--③-|
②口①口

口⑥口④ |④---|
口⑤⑤口 |⑤---|
④口口口 |⑥---|
口口⑥口
7
口口①口 |①---|
①口口① |--②-|
口口④③ |③-④-|
②口口②

口⑦口口 |⑤---|
口⑥⑤口 |⑥---|
⑤口口口 |⑦---|
口口口口
8
口口口口 |①---|
①口口② |--②-|
口口④① |③-④-|
②口①③

口⑦⑦⑤ |⑤---|
口⑥⑥口 |⑥---|
⑤口口口 |⑦---|
口口口口
9
口口口② |①---|
①口口③ |--②-|
口口④① |③-④-|
②口①口

⑤⑦⑤口 |⑤---|
口⑥口口 |⑥---|
口口口口 |⑦---|
口口口口
10
③④口口 |①---|
②口①口 |--②-|
口①口② |③-④-|
口口④③

口口⑥⑦ |⑤---|
口⑤⑦⑥ |⑥---|
⑥⑦⑤口 |⑦---|
⑦⑥口口
11
①口口口 |①---|
口口口口 |----|
口口口口 |----|
口口口①

口口②口 |②---|
口③口② |③---|
④口③口 |④---|
口④口口
12
口口口① |①---|
③②①口 |----|
口①②③ |②-③-|
①口口口

口④口口 |④---|
口口口④ |----|
④口口口 |----|
口口④口
13
口口口口 |----|
①口口③ |①-②-|
口口口口 |③-④-|
②口口④

口口口口 |⑤---|
口⑤⑤口 |⑥---|
⑤⑥⑥⑤ |----|
口⑤⑤口
14
①口口口 |①---|
口口③② |----|
口口口口 |②-③-|
口口口口

口口④口 |④---|
⑤口口口 |----|
口口④口 |⑤---|
口口口口
15
口①口口 |①---|
口口口口 |----|
口①②③ |②-③-|
口口口口

口口口口 |④---|
口口口④ |----|
口⑤口口 |⑤---|
口口口④
16
⑤口口口 |①---|
①④口② |②-③-|
口口③口 |④-⑤-|
①口口口

口⑥口⑦ |⑥---|
口口⑧⑩ |⑦-⑧-|
口口口⑨ |⑨-⑩-|
口口口口
17
口口①口 |①---|
②口口口 |----|
口③①口 |②-③-|
口口口口

口口口⑤ |④---|
口口⑤口 |----|
口口口口 |⑤---|
口④口口
18
②口口口 |①---|
口②口口 |----|
口口口① |②---|
口口①口

口口口④ |③---|
口口④口 |----|
③口口口 |④---|
口③口口
19
口口口口 |①---|
口③口口 |--②-|
口④口① |③-④-|
口②①口

口⑤口口 |⑤---|
⑤口口⑥ |⑥---|
口口口⑦ |⑦---|
口口口口
20
口②口口 |①---|
口口口口 |----|
口口口口 |②---|
口口①口

口口口口 |----|
口⑤口⑥ |③-④-|
口③口④ |⑤-⑥-|
口口口口
21
①口②口 |①-②-|
③口④口 |③-④-|
口⑤口⑥ |⑤-⑥-|
口口口口

口⑨口⑩ |⑦-⑧-|
口⑦口⑧ |⑨-⑩-|
口口⑪口 |⑪---|
口口口⑪
22
口口口口 |①---|
②口口口 |----|
口②口① |②---|
口口①口

口口④口 |③---|
口③口④ |----|
③口口口 |④---|
口口口口
23
口口口① |①---|
口②①口 |--②-|
口④口口 |③-④-|
口③口口

口⑤口口 |⑤---|
⑤口口⑥ |⑥---|
口口口⑦ |⑦---|
口口口口
24
口口①② |①---|
口口口口 |----|
口口口口 |②---|
口口口口

口口口口 |③-④-|
口口口口 |⑤-⑥-|
口口⑦⑧ |⑦-⑧-|
④③⑤⑥
25
④口口口 |①---|
⑤②③口 |②-③-|
⑥①口口 |④⑤⑥⑦|
⑦口口口

口口⑬⑧ |⑧⑨⑩⑪|
口口口⑨ |⑫---|
口口口⑩ |⑬---|
口口⑫⑪
26
②①口口 |①---|
②①口口 |②---|
口口口口 |③---|
口口③口

口口④⑤ |④---|
⑥口④⑤ |⑤-⑥-|
⑦口口口 |⑦-⑧-|
口⑧口口
27
口①口口 |①---|
口①口④ |②-③-|
口口②⑤ |④-⑤-|
口口③口

⑧⑨口口 |⑥-⑦-|
口⑦口口 |⑧---|
⑥口口口 |⑨---|
口口口口
28
口口②① |①---|
口口②① |②---|
口口口口 |③-④-|
④③口口

⑤⑥口口 |⑤---|
⑤⑥口口 |⑥-⑦-|
口口口⑦ |⑧---|
口口⑧口
29
口口①口 |①---|
②④①口 |②-③-|
③⑤口口 |④-⑤-|
口口口口

口口口⑧ |⑥-⑦-|
口口⑦口 |⑧---|
口口口⑥ |⑨-⑩-|
⑨⑩口口
30
①②口口 |①---|
①②口口 |②---|
口口口口 |③-④-|
口口④③

口口⑥⑤ |⑤---|
口口⑥⑤ |⑥-⑦-|
⑦口口口 |⑧---|
口⑧口口
31
②①口口 |①---|
②①口⑤ |②-③-|
口口口④ |④-⑤-|
口口③口

⑧⑦⑥⑦ |⑥---|
口⑧⑥口 |⑦---|
口口口口 |⑧---|
口口口口
32
口口④③ |①---|
口口口口 |--②-|
口口口② |③-④-|
口①①口

口⑦口口 |⑤---|
⑦口口⑥ |⑥---|
口⑤⑤口 |⑦---|
口⑥口口
33
③④口口 |①---|
口①①口 |--②-|
②口口口 |③-④-|
口口口口

口口口口 |⑤---|
口⑥⑦口 |⑥---|
口⑤⑤口 |⑦---|
口⑦⑥口
34
⑥②③④ |①-②③|
①⑥口① |④-⑤-|
①⑤口① |⑥---|
口口口口

口口口⑩ |--⑦⑧|
口口⑩口 |⑨-⑩-|
⑨口口⑨ |----|
口⑧⑦口
35
③②①⑤ |--①②|
口口⑤口 |③-④-|
口口④口 |⑤---|
口口口口

⑨口口口 |--⑥⑦|
口⑨口口 |⑧-⑨-|
⑧口口⑧ |----|
口⑥⑦口
36
⑤①②③ |--①②|
口⑤口口 |③-④-|
口④口口 |⑤---|
口口口口

口口口⑨ |--⑥⑦|
口口⑨口 |⑧-⑨-|
⑧口口⑧ |----|
口⑦⑥口
37
③②①⑤ |--①②|
口口⑤口 |③-④-|
口口④口 |⑤---|
口口口口

⑨口口口 |--⑥⑦|
口⑨口口 |⑧-⑨-|
⑧口口⑧ |----|
口⑥⑦口
38
口口口口 |①-②-|
③口口④ |③-④-|
口①②口 |⑤-⑥-|
口⑤⑥口

口口⑧口 |⑦-⑧⑨|
⑪⑫⑨⑬ |⑩-⑪-|
⑦口⑩口 |⑫-⑬-|
口口口口
39
口口口口 |①-②-|
口口口口 |③-④-|
口⑤⑥口 |⑤-⑥-|
③①②④

口⑫口⑧ |⑦-⑧⑨|
⑦⑬⑪⑨ |⑩-⑪-|
口⑭口⑩ |⑫⑬⑭-|
口口口口
40
②口①③ |①-②-|
口口口口 |③-④-|
口口口口 |⑤-⑥-|
⑥④⑤口

口⑫⑧口 |⑦-⑧⑨|
⑪⑬⑨口 |⑩-⑪-|
口⑭⑩口 |⑫⑬⑭⑮|
口⑮口⑦
41
口口⑥口 |①-②-|
口口口⑤ |③-④-|
④口口② |⑤-⑥-|
③口①口

⑧⑪口口 |⑦-⑧-|
⑦⑩口口 |--⑨-|
口口⑨口 |⑩-⑪-|
口口口口
42
口口口③ |①-②-|
口⑥⑤口 |③-④-|
②口口口 |⑤-⑥-|
口④①口

⑧口⑦口 |⑦-⑧⑨|
⑨口⑬口 |⑩-⑪-|
⑩⑪口⑫ |⑫-⑬-|
口口口口
43
口口口⑤ |①-②-|
④②口口 |③-④-|
口口口⑥ |⑤-⑥-|
口③①口

⑧口口口 |⑦-⑧-|
口⑩⑦口 |⑨-⑩-|
⑨⑫口口 |⑪-⑫-|
口口⑪口
44
⑥①口② |①---|
⑦口口③ |②③④⑤|
⑧口口④ |⑥⑦⑧⑨|
⑨口口⑤

口⑭⑩⑱ |⑩⑪⑫⑬|
口⑮⑪⑲ |⑭⑮⑯⑰|
口⑯⑫⑳ |⑱⑲⑳Ⓐ|
口⑰⑬Ⓐ
45
①口②口 |----|
③口④口 |①-②-③-|
⑤口⑥口 |④-⑤-⑥-|
口口口口

⑪⑧口⑪ |⑦-⑧-⑨-|
口口口⑩ |⑩---|
口⑨口口 |⑪---|
⑦口口口
46
口口②口 |①---|
①口口③ |--②-|
口口口① |--③-|
②口①口

口⑥口④ |④---|
口⑤⑤口 |⑤---|
④口口口 |⑥---|
口口⑥口
47
口口①口 |①---|
①口口① |--②-|
口口④③ |③-④-|
②口口②

口⑦口口 |⑤---|
口⑥⑤口 |⑥---|
⑤口口口 |⑦---|
口口口口
48
口口口口 |①---|
①口口② |--②-|
口口④① |③-④-|
②口①③

口⑦⑦⑤ |⑤---|
口⑥⑥口 |⑥---|
⑤口口口 |⑦---|
口口口口
49
口口口② |①---|
①口④③ |--②-|
口口口① |③-④-|
②口①口

口⑦口口 |⑤---|
口⑥口口 |⑥---|
⑤口⑤口 |⑦---|
口口口口
50
③④口口 |①---|
②口①口 |--②-|
口①口② |③-④-|
口口④③

口口⑥⑦ |⑤---|
口⑤⑦⑥ |⑥---|
⑥⑦⑤口 |⑦---|
⑦⑥口口
51
①口口口 |①---|
口口口口 |----|
口口口口 |----|
口口口①

口口②口 |②---|
口③口② |③---|
④口③口 |④---|
口④口口
52
②口口① |①---|
口口①③ |----|
③①口口 |②-③-|
①口口②

口⑤口口 |④---|
⑤口⑥口 |⑤---|
口⑥口口 |⑥---|
口④④口
53
口口①① |①---|
④口口口 |②-③-|
②口口口 |④-⑤-|
口③⑤口

口口⑧⑩ |⑥-⑦-|
口⑩⑨⑥ |⑧-⑨-|
口口⑦口 |⑩---|
口口口口
54
口口④口 |①-②-|
口⑥口⑥ |③-④-|
④⑤口① |⑤-⑥-|
②③①口

⑧⑨口⑦ |⑦-⑧-|
⑦口⑨口 |⑨---|
口口口口 |⑩---|
口口⑩口
55
口口①口 |①-②-|
⑥⑤口① |③-④-|
③④⑥⑤ |⑤-⑥-|
①②口④

⑦⑧⑩⑦ |⑦-⑧-|
口⑫⑦⑨ |⑨-⑩-|
口⑪口口 |⑪-⑫-|
口口口口
56
口口口口 |①---|
口口口③ |②-③-|
④⑤⑤① |④-⑤-|
③②①④

⑧⑨⑩⑥ |⑥-⑦-|
⑦⑥⑧口 |⑧-⑨-|
口口口口 |⑩---|
口口口口
57
口口口口 |①---|
②口口② |--②-|
①④④① |③-④-|
③口①③

⑥口⑦⑩ |⑤-⑥-|
⑩⑤⑤⑨ |⑦-⑧-|
⑧口口口 |⑨-⑩-|
口口口口
58
②①③口 |①---|
口口口④ |--②-|
④口口① |③-④-|
口③①②

⑦⑥口口 |⑤---|
⑥⑦⑤口 |⑥---|
口⑤⑦⑥ |⑦---|
口口⑥⑦
59
口口口① |①---|
④口③口 |②-③-|
②口口口 |④-⑤-|
①口⑤口

⑧口⑧口 |⑥---|
口⑥口⑥ |⑦---|
口⑦口⑦ |⑧---|
口⑥口⑥
60
口①口① |①---|
①②①口 |--②-|
口口②④ |③-④-|
口口③口

口口⑤口 |⑤---|
⑥口⑦口 |⑥-⑦-|
⑧⑤⑨口 |⑧-⑨-|
口口口口
61
①①口口 |①---|
④口口② |②-③-|
口口口口 |④-⑤-|
⑤口口③

口口口口 |⑥---|
口⑥⑥口 |⑦---|
⑥⑦⑦⑥ |----|
口⑥⑥口

不確定度: 0

最終更新:2017年08月16日 01:12