Ding Dong Bell
A応P

BASIC

Level: 3
BPM: 157
Notes: 259

1
口口口口 |----|
口口口口 |----|
口口口口 |----|
口口口口 |----|
2
口口口口 |----|
口口口口 |----|
口口口口 |----|
口口口口 |----|
3
口口口口 |----|
口口口口 |----|
口口口口 |----|
口口口口 |----|
4
口口口口 |①---|
口①②口 |②---|
口①②口 |----|
③口口口 |③---|
5
口口口口 |①---|
②口③口 |②---|
①口口口 |----|
口口口口 |③---|
6
口口口口 |①---|
口口口口 |②---|
口①口口 |----|
口③②口 |③---|
7
口口口① |①---|
口口口② |②---|
口口口③ |③---|
口口口④ |④---|
8
口口口口 |①---|
口①②口 |②---|
口①②口 |----|
③口口口 |③---|
9
口口口口 |①---|
②口口口 |②---|
①口口口 |----|
口口③口 |③---|
10
口口口口 |①---|
口口②口 |②---|
口①口口 |----|
口口口口 |----|
11
①①口口 |①---|
②②口口 |----|
口口口口 |②---|
口口口口 |----|
12
口口口口 |①---|
口口口口 |----|
①①口口 |----|
口口口口 |----|
13
口口口口 |----|
口口口口 |----|
口口口口 |----|
口口口口 |----|
14
口口口口 |①---|
口口口口 |----|
②口口① |②---|
口口口口 |----|
15
口口口口 |①---|
口口口口 |②---|
口②②口 |----|
口①①口 |----|
16
口口口口 |①---|
口口②① |----|
口口口口 |②---|
口口口口 |----|
17
口口口口 |①---|
口①口口 |----|
口口口口 |----|
口口口口 |----|
18
口口口口 |①---|
口口口口 |----|
①②口口 |②---|
口口口口 |----|
19
口口口口 |①---|
口②口口 |----|
口口①口 |②---|
口口口口 |----|
20
口口口口 |①---|
口口口口 |----|
口口①口 |②---|
口②口口 |----|
21
口③口口 |----|
口口②口 |①---|
口①口口 |②---|
口口口口 |③---|
22
口口口① |①---|
口口口口 |----|
口②口口 |②---|
口口口口 |----|
23
口口口口 |----|
口口口口 |----|
口口口口 |----|
口口口口 |----|
24
口口口口 |①---|
口口口口 |----|
口②口口 |②---|
口①口口 |----|
25
口口口口 |①---|
口①口口 |----|
口口口口 |----|
口口口口 |----|
26
口口①口 |①---|
口口②口 |----|
口口口口 |②---|
口口口口 |----|
27
口口口口 |①---|
口口口口 |----|
口口①口 |②---|
口②口口 |----|
28
口口②口 |①---|
口①口口 |----|
口口口口 |②---|
口口口口 |----|
29
①口口② |①---|
口③④口 |②---|
口口口口 |③---|
口口口口 |④---|
30
口口口口 |①---|
口口口口 |----|
口①口口 |----|
口口口口 |----|
31
口口口口 |----|
口口口口 |----|
口口口口 |----|
口口口口 |----|
32
④③②① |①---|
口口口口 |②---|
口口口口 |③---|
口口口口 |④---|
33
口口口口 |①---|
口③②① |②---|
口口口口 |③---|
口口口口 |----|
34
口口口口 |①---|
口口口口 |----|
口②②口 |②---|
口①①口 |----|
35
②③口口 |①---|
口①①口 |----|
口口口口 |②---|
口口口口 |③---|
36
口口①口 |①---|
口②③口 |----|
口口口口 |②---|
口口口口 |③---|
37
口口口口 |①---|
口口口口 |②---|
口①②口 |③---|
口③④口 |④---|
38
口口口口 |①---|
②口口口 |----|
口口口口 |②---|
①口口口 |----|
39
口口口口 |----|
口口口口 |----|
口口口口 |----|
口口口口 |----|
40
口口口口 |①---|
口口口口 |②---|
口口口口 |③---|
④③②① |④---|
41
口口口口 |①---|
口口口口 |②---|
口③②① |③---|
口口口口 |----|
42
口①①口 |①---|
口②②口 |----|
口口口口 |②---|
口口口口 |----|
43
口口口口 |①---|
口口口口 |----|
③①①口 |②---|
②口口口 |③---|
44
③口口② |①---|
①口口口 |----|
口口口口 |②---|
口口口口 |③---|
45
口口口口 |①---|
②口口① |②---|
④口口③ |③---|
口口口口 |④---|
46
口口口口 |①---|
口口②口 |----|
口口口口 |②---|
口口①口 |----|
47
口口口口 |①---|
口②口口 |----|
口口口口 |②---|
口①口口 |----|
48
口口②② |①---|
口口口口 |----|
口口①① |②---|
口口口口 |----|
49
②②口口 |①---|
口口口口 |----|
①①口口 |②---|
口口口口 |----|
50
口口口口 |①---|
口①②口 |②---|
口①②口 |----|
③③口口 |③---|
51
口口口口 |①---|
②②口口 |②---|
①①③③ |----|
口口口口 |③---|
52
口口②② |①---|
口③①① |②---|
口口口口 |----|
口口口口 |③---|
53
①口口① |①---|
②口口② |②---|
③口口③ |③---|
④口口④ |④---|
54
口口口口 |①---|
口①②口 |②---|
口①②口 |----|
③③口口 |③---|
55
口口口口 |①---|
②②口口 |②---|
①①③③ |----|
口口口口 |③---|
56
口口②② |①---|
口口①① |②---|
口口口口 |----|
口口口口 |----|
57
口口口口 |①---|
①①②② |----|
口口口口 |②---|
口口口口 |----|
58
①口口① |①---|
口口口口 |----|
口口口口 |----|
口口口口 |----|
59
口①②口 |①---|
口③④口 |②---|
口口口口 |③---|
口口口口 |④---|
60
口口口口 |①---|
口口口口 |②---|
口①②口 |③---|
口③④口 |④---|
61
口口口口 |①---|
口口口口 |②---|
③口口④ |③---|
①口口② |④---|
62
③口口④ |①---|
①口口② |②---|
口口口口 |③---|
口口口口 |④---|
63
口④口口 |①---|
口③口口 |②---|
口②口口 |③---|
口①口口 |④---|
64
口口①口 |①---|
口口②口 |②---|
口口③口 |③---|
口口④口 |④---|
65
口④口口 |①---|
口③口口 |②---|
口②口口 |③---|
口①口口 |④---|
66
④口口④ |①---|
③口口③ |②---|
②口口② |③---|
①口口① |④---|
67
口口口口 |①---|
口①②口 |②---|
口口口口 |----|
口③口口 |③---|
68
口口口③ |①---|
口②口口 |②---|
口口①口 |----|
口口口口 |③---|
69
口口口口 |①---|
口③口① |②---|
口口口② |----|
口口口口 |③---|
70
①口口① |①---|
②口口② |②---|
③口口③ |③---|
④口口④ |④---|
71
口口口口 |①---|
口①②口 |②---|
口①②口 |----|
③③口口 |③---|
72
口口口口 |①---|
②②口口 |②---|
①①③③ |----|
口口口口 |③---|
73
口口②② |①---|
口口①① |②---|
口口口口 |----|
口口口口 |----|
74
口口口口 |①---|
口②②口 |----|
口①①口 |②---|
口口口口 |----|
75
①口口① |①---|
口口口口 |----|
口口口口 |----|
口口口口 |----|
76
口口口口 |①---|
口①①口 |----|
口②②口 |②---|
口口口口 |----|
77
口口口口 |①---|
①口口① |----|
②口口② |②---|
口口口口 |----|
78
口口口口 |①---|
口口口口 |----|
口口口口 |----|
口①①口 |----|
79
口口口口 |----|
口口口口 |----|
口口口口 |----|
口口口口 |----|
80
①口口口 |①---|
口口②口 |----|
口口口口 |②---|
口口口口 |----|
81
口口口口 |①---|
口口口口 |-②--|
口①②口 |----|
口口口口 |----|

不確定度: 0

最終更新:2017年08月16日 01:11