Ding Dong Bell
A応P

ADVANCED

Level: 6
BPM: 157
Notes: 354

1
口口口口 |----|
口口口口 |----|
口口口口 |----|
口口口口 |----|
2
口口口口 |----|
口口口口 |----|
口口口口 |----|
口口口口 |----|
3
口口口口 |----|
口口口口 |----|
口口口口 |----|
口口口口 |----|
4
③口口④ |①---|
①①②② |②---|
⑤①②口 |--③-|
口口口口 |④-⑤-|
5
口口口口 |①---|
口口②口 |②---|
口④口① |----|
口口③口 |③-④-|
6
②口口口 |①---|
口③①口 |②---|
口口④口 |--③-|
口⑤口口 |④-⑤-|
7
③③①① |①---|
口口口口 |②---|
口口口口 |③---|
④④②② |④---|
8
③口口④ |①---|
①①②② |②---|
⑤①②口 |--③-|
口口口口 |④-⑤-|
9
口口口口 |①-②-|
口②③口 |③---|
口口⑤① |----|
口④口口 |④-⑤-|
10
口③口② |①---|
③①口口 |②---|
口口口口 |----|
口口口口 |--③-|
11
⑤口①⑤ |①---|
口口口① |②-③-|
②④④③ |--④-|
口②③口 |--⑤-|
12
口③口口 |----|
口①②口 |--①-|
口口口口 |②---|
口口口口 |--③-|
13
口口口口 |--①-|
口③②口 |--②-|
口①口口 |③---|
口口口口 |----|
14
口口口口 |①---|
①④口① |--②-|
口②③口 |③---|
口口口口 |--④-|
15
口口口口 |--①-|
口口口口 |②---|
口口口口 |----|
口①②口 |----|
16
口口口口 |①---|
口⑤口口 |②-③-|
口②③口 |--④-|
口④口① |--⑤-|
17
口口口口 |----|
口口口口 |----|
口口①口 |----|
口口口口 |--①-|
18
口口⑤口 |①---|
口③②口 |②-③-|
口①④口 |--④-|
口口口口 |--⑤-|
19
①口口口 |----|
②口口口 |①---|
③口口口 |②---|
口口口口 |③---|
20
口口口口 |①---|
口③②口 |--②-|
口口口口 |③---|
①口口口 |----|
21
口口口口 |----|
口③口口 |①---|
口①②口 |②---|
口口口口 |③---|
22
②口口口 |①---|
口口①口 |--②-|
口口口口 |----|
口口口口 |----|
23
口口口口 |----|
口口口口 |----|
口口①口 |----|
口口口口 |--①-|
24
口口⑤口 |①---|
口③②口 |②-③-|
口①④口 |--④-|
口口口口 |--⑤-|
25
口口口口 |----|
口口口口 |----|
口①口口 |----|
口口口口 |--①-|
26
口⑤口口 |①---|
口②③口 |②-③-|
口④①口 |--④-|
口口口口 |--⑤-|
27
口口口① |----|
口口口② |①---|
口口口③ |②---|
口口口口 |③---|
28
口口口口 |①---|
口②口口 |--②-|
口口口口 |----|
口口口① |----|
29
口口口口 |①---|
口③④口 |②---|
口①②口 |③---|
口口口口 |④---|
30
口①口口 |①---|
口口口口 |----|
口口口口 |----|
口口口口 |----|
31
口口口口 |----|
口口口口 |----|
口口口口 |----|
口口口口 |----|
32
②口口① |①-②-|
④口口③ |③-④-|
⑥口口⑤ |⑤-⑥-|
口⑦口口 |--⑦-|
33
口口②口 |--①-|
口①口口 |--②-|
口③口口 |----|
口口口口 |--③-|
34
口④⑤口 |①---|
口②③口 |②-③-|
口口①口 |--④-|
口口口口 |⑤---|
35
①口口口 |----|
②口口口 |----|
口口口口 |①---|
口口口口 |②---|
36
口口口口 |①---|
口口口② |----|
①口口③ |②---|
口口口口 |③---|
37
口④口口 |①---|
口②③口 |②-③-|
口口口口 |--④-|
口口口① |----|
38
口口口口 |①---|
口②③口 |--②-|
口口口口 |③---|
口口①口 |----|
39
口口口口 |----|
口口口口 |----|
口口口口 |----|
口口口口 |----|
40
①口口② |①-②-|
③口口④ |③-④-|
⑤口口⑥ |⑤-⑥-|
口⑦口口 |--⑦-|
41
口口③口 |--①-|
口②口口 |--②-|
口①口口 |----|
口口口口 |--③-|
42
口①口口 |①---|
口③②口 |②-③-|
口⑤④口 |--④-|
口口口口 |⑤---|
43
口口口口 |----|
口口口口 |----|
口口口② |①---|
口口口① |②---|
44
②口口口 |①---|
③口口① |----|
口口口口 |②---|
口口口口 |③---|
45
口口口口 |①---|
口③②口 |②-③-|
①⑤口口 |--④-|
口口口④ |--⑤-|
46
④②③④ |①---|
口口口口 |--②-|
口口①口 |③---|
口口口口 |--④-|
47
口口口口 |--①-|
口④口口 |②-③-|
口②③口 |----|
①口口① |--④-|
48
口②③口 |①---|
口口①口 |--②-|
口口口口 |③---|
口口口口 |----|
49
②口口② |①---|
口口口口 |----|
口口口口 |②---|
①口口① |----|
50
③口口④ |①---|
①①②② |②---|
⑤①②口 |--③-|
口口口口 |④-⑤-|
51
口口口口 |①---|
口口②口 |②---|
口④口① |----|
口口③口 |③-④-|
52
②口口口 |①---|
口③①口 |②---|
口口④口 |--③-|
口⑤口口 |④-⑤-|
53
③③①① |①---|
口口口口 |②---|
口口口口 |③---|
④④②② |④---|
54
③口口④ |①---|
①①②② |②---|
⑤①②口 |--③-|
口口口口 |④-⑤-|
55
口口口口 |①-②-|
口②③口 |③---|
口口⑤① |----|
口④口口 |④-⑤-|
56
口③口② |①---|
③①口口 |②---|
口口口口 |----|
口口口口 |--③-|
57
⑤口①⑤ |①---|
口口口① |②-③-|
②④④③ |--④-|
口②③口 |--⑤-|
58
口口口口 |----|
口口口口 |----|
口口口口 |----|
口口口口 |----|
59
口②口口 |①---|
口④③口 |②---|
口口⑤口 |--③-|
口①口口 |④-⑤-|
60
口口口② |①---|
口口口口 |②---|
口①口口 |----|
③口口④ |③-④-|
61
口③⑥口 |①-②-|
口⑤②口 |③-④-|
口①④口 |⑤-⑥-|
口口口口 |----|
62
①口口④ |①-②-|
⑤口口② |③-④-|
③口口⑥ |⑤-⑥-|
口⑦⑧口 |⑦-⑧-|
63
口口②口 |①---|
口口口口 |②---|
口①口口
口口口口

口口口口
口③④口
口⑤口口 |--③-|
口口口口 |④-⑤-|
64
④③②① |①-②-|
口口口口 |③-④-|
口口口口 |----|
口口口口 |----|
65
口口①⑥ |①-②-|
口②口口 |③-④-|
口口③口 |--⑤-|
口④口⑤ |--⑥-|
66
④④④④ |①---|
口③③③ |②---|
口②②口 |③---|
口口①口 |④---|
67
③口口④ |①---|
口口口口 |②---|
⑤①②口 |--③-|
口口口口 |④-⑤-|
68
口口口口 |①---|
口口②口 |②---|
口④口① |----|
口口③口 |③-④-|
69
②口口口 |①---|
口③①口 |②---|
口口④口 |--③-|
口⑤口口 |④-⑤-|
70
③③①① |①---|
口口口口 |②---|
口口口口 |③---|
④④②② |④---|
71
③口口④ |①---|
①①②② |②---|
⑤①②口 |--③-|
口口口口 |④-⑤-|
72
口口口口 |①-②-|
口②③口 |③---|
口口⑤① |----|
口④口口 |④-⑤-|
73
口③口② |①---|
③①口口 |②---|
口口口口 |----|
口口口口 |--③-|
74
⑤口①⑤ |①---|
口口口① |②-③-|
②④④③ |--④-|
口②③口 |--⑤-|
75
口口口口 |----|
口③口口 |----|
口口②口 |--①-|
口①口口 |②-③-|
76
②口①口 |①---|
口口口口 |----|
口口口口 |②---|
口口口口 |----|
77
口口口口 |①---|
口口口口 |----|
口②②口 |②---|
口口①口 |----|
78
①口④① |①---|
口②③口 |--②-|
口口口口 |③---|
口口口口 |--④-|
79
口口口口 |--①-|
口②③口 |--②-|
口口①口 |③---|
口口口口 |----|
80
①口④口 |①---|
口③②口 |--②-|
口口口口 |③---|
口口口口 |--④-|
81
口口口口 |----①-|
口口口口 |-②--|
口②①口 |----|
口口口口 |----|

不確定度: 0

最終更新:2017年08月16日 01:09