Ding Dong Bell
A応P

EXTREME

Level: 8
BPM: 157
Notes: 583

1
口口口口 |----|
口口口口 |----|
口口口口 |----|
口口口口 |----|
2
口口口口 |----|
口口口口 |----|
口口口口 |----|
口口口口 |----|
3
口口口口 |----|
口口口口 |----|
口口口口 |----|
口口口口 |----|
4
③①口口 |①---|
①①④② |②---|
①①②② |--③-|
口⑤②② |④-⑤-|
5
口③②① |①-②-|
⑤口口口 |③---|
口口口口 |----|
口口口④ |④-⑤-|
6
口口②② |①---|
口口③口 |②---|
口④口口 |--③-|
①①⑤口 |④-⑤-|
7
④②①④ |①---|
②口④① |②---|
①口③② |③---|
③口口③ |④---|
8
口①口⑤ |①---|
①①③② |②---|
①①②② |--③-|
④口②② |④-⑤-|
9
口口口口 |①-②-|
口口口口 |③---|
①②③口
口口口口

口口④口
口⑤④口
口⑤口口 |----|
口口口口 |④-⑤-|
10
①口③② |①---|
①口口口 |②---|
口③口③ |----|
口口口口 |--③-|
11
③口口③ |①---|
①②①口 |②-③-|
口口②口
口①口口

口口⑤口
口口口⑤
⑤口口口 |--④-|
④⑤口④ |--⑤-|
12
②④④③ |①---|
口①①口 |--②-|
口②③口 |③---|
口口口口 |--④-|
13
④口口口 |--①-|
②口口③ |--②-|
口②③口 |③---|
口①①口 |④---|
14
④②③④ |①---|
口①①口 |--②-|
口②③口 |③---|
口口口口 |--④-|
15
④⑤⑥口 |--①-|
口口口口 |②---|
①口口② |③-④-|
③①②口 |⑤-⑥-|
16
⑤口口② |①---|
口①口口 |②-③-|
口①口③ |--④-|
口④口口 |--⑤-|
17
口②①口 |①---|
②口口① |--②-|
口③③口 |----|
口口口④ |③-④-|
18
①⑤⑤② |①---|
口口口口 |②-③-|
口口口口 |--④-|
③④④口 |--⑤-|
19
口口口口 |----|
①②③口 |①---|
①②③口 |②---|
口口口口 |③---|
20
口②③口 |①---|
口口口① |--②-|
口口口① |③---|
口口口口 |----|
21
①口①口 |----|
口②口② |①---|
③口③口 |②---|
口口口口 |③---|
22
④②④③ |①-②-|
口⑥口⑥ |③---|
口②口③ |④-⑤-|
⑤①⑤① |--⑥-|
23
②口②口 |①---|
口⑦⑥⑤ |②-③-|
①口①口 |④-⑤-|
口③④③ |⑥-⑦-|
24
口②口① |①---|
口口口口 |②-③-|
口口③口
口口口口

口口口⑤
口口口口
口口口口 |--④-|
口④口口 |--⑤-|
25
口①②口 |①---|
①口口② |--②-|
口③③口 |----|
④口口口 |③-④-|
26
口⑤口口 |①---|
②口①口 |②-③-|
口口口口 |--④-|
口④口③ |--⑤-|
27
口口口口 |----|
口③②① |①---|
口③②① |②---|
口口口口 |③---|
28
口口口② |①---|
①口口口 |--②-|
①口口口 |----|
口口口口 |----|
29
①口①口 |①---|
口②口② |②---|
③口③口 |③---|
口④口④ |④---|
30
②①①口 |①---|
口口口口 |--②-|
口②口口
口口口口

口④④③
口口口口
口口③口 |③---|
口口口口 |--④-|
31
口⑥⑤④ |--①-|
口口口口 |②---|
①口口② |③-④-|
③①②口 |⑤-⑥-|
32
⑥口⑦⑦ |①-②-|
口口口⑤ |③-④-|
口口②① |⑤-⑥-|
口口④③ |--⑦-|
33
口口口口 |--①-|
口口口口 |--②-|
口③口口 |----|
①①②② |--③-|
34
口①①口 |①---|
口口口④ |②-③-|
⑤口口口 |--④-|
口②③口 |⑤---|
35
口口口口 |----|
②口②口 |----|
口②①口 |①---|
口①口① |②---|
36
口②①口 |①---|
②①口① |----|
口口口③ |②---|
口口③口 |③---|
37
口口②④ |①---|
口口口② |②-③-|
①③口口 |--④-|
口①口口 |----|
38
口口口口 |①---|
②①①③ |--②-|
口口口口 |③---|
②口口③ |----|
39
①口口⑧ |①-②-|
⑦②口口 |③-④-|
口口③⑥ |⑤-⑥-|
⑤口口④ |⑦-⑧-|
40
⑦⑦口⑥ |①-②-|
⑤口口口 |③-④-|
①②口口 |⑤-⑥-|
③④口口 |--⑦-|
41
口口口口 |--①-|
口口口口 |--②-|
口口③口 |----|
②②①① |--③-|
42
口①①口 |①---|
④口口口 |②-③-|
口口口⑤ |--④-|
口③②口 |⑤---|
43
口口口口 |----|
口②口② |----|
口①②口 |①---|
①口①口 |②---|
44
口①②口 |①---|
①口①② |----|
③口口口 |②---|
口③口口 |③---|
45
口②口④ |①---|
②⑤口口 |②-③-|
口口③① |--④-|
口⑤①口 |--⑤-|
46
②口口口 |①---|
口口①口 |--②-|
口②口口
口口①口

口口口③
口④④口
口口③口 |③---|
口口口口 |--④-|
47
③口口口 |--①-|
口口口口 |②-③-|
口②口④ |----|
①口口④ |--④-|
48
口口口口 |①---|
口口③口 |--②-|
①②口口 |③---|
①口口口 |----|
49
②口口② |①---|
口口口口 |----|
口口口口 |②---|
口①①口 |----|
50
③①口口 |①---|
①①④② |②---|
①①②② |--③-|
口⑤②② |④-⑤-|
51
口③②① |①-②-|
⑤口口口 |③---|
口口口口 |----|
口口口④ |④-⑤-|
52
口口②② |①---|
口口③口 |②---|
口④口口 |--③-|
①①⑤口 |④-⑤-|
53
④②①④ |①---|
②口④① |②---|
①口③② |③---|
③口口③ |④---|
54
口①口⑤ |①---|
①①③② |②---|
①①②② |--③-|
④口②② |④-⑤-|
55
口口口口 |①-②-|
口口口口 |③---|
①②③口
口口口口

口口④口
口⑤④口
口⑤口口 |----|
口口口口 |④-⑤-|
56
①口③② |①---|
①口口口 |②---|
口③口③ |----|
口口口口 |--③-|
57
③口口③ |①---|
①②①口 |②-③-|
口口②口
口①口口

口口⑤口
口口口⑤
⑤口口口 |--④-|
④⑤口④ |--⑤-|
58
口口口⑤ |①-②-|
口①②⑥ |③-④-|
口③④⑦ |--⑤⑥|
口⑩⑨⑧ |⑦⑧⑨⑩|
59
③口②口 |①---|
④口口口 |②---|
⑤口口口 |--③-|
①口口口 |④-⑤-|
60
④②口口 |①---|
口口口口 |②---|
口口口口 |----|
①口口③ |③-④-|
61
⑩口口⑤ |①②③④|
⑥⑦⑧⑨ |⑤-⑥⑦|
④③②① |⑧⑨⑩-|
口口口口 |----|
62
口口口口 |①②③④|
口⑤口口 |⑤-⑥⑦|
口口⑦⑥
①②③④

口⑫口⑩
⑬口⑪口
⑨⑧口口 |⑧⑨⑩⑪|
口⑮⑭口 |⑫⑬⑭⑮|
63
③口②口 |①---|
口④口口 |②---|
⑤口口口 |--③-|
口口口① |④-⑤-|
64
口⑤口④ |①-②-|
口口③口 |③-④-|
口口口② |⑤---|
口口①口 |----|
65
口⑥①口 |①-②-|
口口口③ |③-④-|
口口②口 |--⑤-|
口④⑤口 |--⑥-|
66
④④④④ |①---|
②口口② |②---|
口口口口 |③---|
①③③① |④---|
67
③口口口 |①---|
口口④口 |②---|
①口口② |--③-|
口⑤口口 |④-⑤-|
68
口③②① |①-②-|
⑤口口口 |③---|
口口口口 |----|
口口口④ |④-⑤-|
69
口口②口 |①---|
口口③口 |②---|
口④口口 |--③-|
口①⑤口 |④-⑤-|
70
④②①④ |①---|
②口④① |②---|
①口③② |③---|
③口口③ |④---|
71
口①口⑤ |①---|
①①③② |②---|
①①②② |--③-|
④口②② |④-⑤-|
72
口口口口 |①-②-|
口口口口 |③---|
①②③口
口口口口

口口④口
口⑤④口
口⑤口口 |----|
口口口口 |④-⑤-|
73
①口口② |①---|
①③③口 |②---|
口③③口 |----|
口口口口 |--③-|
74
③口口③ |①---|
①口口① |②-③-|
①口口①
口口②口

口口⑤口
口口口⑤
⑤口口口 |--④-|
④⑤口④ |--⑤-|
75
口口口⑤ |①-②-|
口①②口 |③-④-|
口③④口 |--⑤-|
⑥口口⑦ |⑥-⑦-|
76
①口②口 |①---|
口口口② |----|
口口口口 |②---|
口口口口 |----|
77
口②口口 |①---|
②口口口 |----|
口口口口 |②---|
口口①口 |----|
78
②口①口 |①---|
口口口① |--②-|
①②口口
口①口口

口④④③
口口口口
口口③口 |③---|
口口口口 |--④-|
79
④口口口 |--①-|
②口口③ |--②-|
口②③口 |③---|
口①①口 |④---|
80
④②③④ |①---|
口①①口 |--②-|
口②③口 |③---|
口口口口 |--④-|
81
口口口口 |----①-|
口口口口 |-②--|
①口口② |----|
口①②口 |----|

不確定度: 0

最終更新:2017年08月16日 01:09