ちょちょいとちょいだよ夢浪漫
A応P

BASIC

Level: 3
BPM: 152
Notes: 184

1
口口口口 |----|
口口口口 |----|
口口口口 |----|
口口口口 |----|
2
口口口口 |①---|
口口口口 |----|
②口口① |②---|
口口口口 |----|
3
口口口口 |①---|
②口口① |----|
口口口口 |②---|
口口口口 |----|
4
②口口① |①---|
口口口口 |----|
口口口口 |②---|
口口口口 |----|
5
口①①口 |①---|
口②②口 |②---|
口③③口 |③---|
口口口口 |----|
6
口②①口 |①---|
口口口口 |----|
口口口口 |②---|
口口口口 |----|
7
口口口口 |①---|
口②①口 |----|
口口口口 |②---|
口口口口 |----|
8
口口口口 |①---|
口口口口 |----|
口②①口 |②---|
口口口口 |----|
9
口口口口 |①---|
口口口口 |----|
口口口口 |②---|
口②①口 |----|
10
④口口④ |①---|
③口口③ |②---|
②口口② |③---|
①口口① |④---|
11
口①①口 |①---|
口口口口 |----|
口口口口 |----|
口口口口 |----|
12
②口口① |①---|
口口口口 |----|
口口口口 |②---|
口口口口 |----|
13
口口口口 |①---|
②口口① |----|
口口口口 |②---|
口口口口 |----|
14
口口口口 |①---|
口①①口 |----|
口口口口 |----|
口口口口 |----|
15
①口口② |①---|
口口口口 |----|
口口口口 |②---|
口口口口 |----|
16
口口口口 |①---|
①口口② |----|
口口口口 |②---|
口口口口 |----|
17
口口口口 |①---|
口口口口 |----|
①口口② |②---|
口口口口 |----|
18
口口口口 |①---|
口口口口 |----|
口口口口 |----|
①口口口 |----|
19
口②①口 |①---|
口口口口 |----|
口口口口 |②---|
口口口口 |----|
20
口口口口 |①---|
口②①口 |----|
口口口口 |②---|
口口口口 |----|
21
口口口口 |①---|
口口口口 |----|
口②①口 |②---|
口口口口 |----|
22
口口口口 |①---|
①口口① |----|
②口口② |②---|
口口口口 |----|
23
口①①口 |①---|
口②②口 |②---|
口③③口 |③---|
口口口口 |----|
24
口口口口 |①---|
②口口① |----|
口口口口 |②---|
口口口口 |----|
25
口口口口 |①---|
口口口口 |----|
②口口① |②---|
口口口口 |----|
26
口口口口 |①---|
口口口口 |----|
口口口口 |②---|
②口口① |----|
27
口口口口 |①---|
口①①口 |②---|
口②②口 |③---|
口③③口 |----|
28
口口口口 |①---|
口口口口 |----|
②口口① |②---|
口口口口 |----|
29
口口口口 |①---|
②口口① |----|
口口口口 |②---|
口口口口 |----|
30
②口口① |①---|
口口口口 |----|
口口口口 |②---|
口口口口 |----|
31
口①①口 |①---|
口②②口 |②---|
口③③口 |③---|
口口口口 |----|
32
口口口口 |①---|
口口②① |----|
口口口口 |②---|
口口口口 |----|
33
口口②② |①---|
口口口① |----|
口口口口 |②---|
口口口口 |----|
34
口口口口 |①---|
①②口口 |----|
口口口口 |②---|
口口口口 |----|
35
②②口口 |①---|
①口口口 |----|
口口口口 |②---|
口口口口 |----|
36
口口口口 |①---|
口口口口 |----|
口②①口 |②---|
口口口口 |----|
37
口口口口 |①---|
口②②口 |----|
口口①口 |②---|
口口口口 |----|
38
口口口口 |----|
口口口口 |----|
口口口口 |----|
口口口口 |----|
39
口口口口 |①---|
①口口① |----|
②口口② |②---|
口口口口 |----|
40
口①①口 |①---|
口②②口 |②---|
口③③口 |③---|
口口口口 |----|
41
口口口口 |①---|
①口口① |----|
②口口② |②---|
口口口口 |----|
42
口①①口 |①---|
口②②口 |②---|
口③③口 |③---|
口口口口 |----|
43
口口口口 |①---|
口口②① |----|
口口口口 |②---|
口口口口 |----|
44
口口口口 |①---|
②①口口 |----|
口口口口 |②---|
口口口口 |----|
45
①②口口 |①---|
口口口口 |----|
口口口口 |②---|
口口口口 |----|
46
口口口① |①---|
口口口② |②---|
口口口③ |③---|
口口口口 |----|
47
口口口口 |①---|
①②口口 |----|
口口口口 |②---|
口口口口 |----|
48
口口口口 |①---|
口口①② |----|
口口口口 |②---|
口口口口 |----|
49
口口②① |①---|
口口口口 |----|
口口口口 |②---|
口口口口 |----|
50
①口口口 |①---|
②口口口 |②---|
③口口口 |③---|
口口口口 |----|
51
口口口口 |①---|
口③④口 |②---|
口②①口 |③---|
口口口口 |④---|
52
口口口口 |①---|
口③④口 |②---|
口②①口 |③---|
口口口口 |④---|
53
④③②① |①---|
口口口口 |②---|
口口口口 |③---|
口口口口 |④---|
54
口口口口 |①---|
①①口口 |②---|
②②口口 |③---|
③③口口 |----|
55
口口口口 |①---|
口④③口 |②---|
口①②口 |③---|
口口口口 |④---|
56
口口口口 |①---|
口④③口 |②---|
口①②口 |③---|
口口口口 |④---|
57
①②③④ |①---|
口口口口 |②---|
口口口口 |③---|
口口口口 |④---|
58
口口口口 |①---|
口口①① |②---|
口口②② |③---|
口口③③ |----|
59
④口口③ |①---|
②口口① |②---|
口口口口 |③---|
口口口口 |④---|
60
口①①口 |①---|
口②②口 |②---|
口③③口 |③---|
口④④口 |④---|

不確定度: 0

最終更新:2017年08月16日 01:08