ちょちょいとちょいだよ夢浪漫
A応P

ADVANCED

Level: 6
BPM: 152
Notes: 399

1
口口口口 |----|
口口口口 |----|
口口口口 |----|
口口口口 |----|
2
口口口口 |①-②-|
口口口口 |----|
①①③③ |③-④-|
②②④④ |----|
3
①①③③ |①-②-|
②②④④ |----|
口口口口 |③-④-|
口口口口 |----|
4
口口口口 |--①-|
④④⑤⑤ |②-③-|
口①②③ |④---|
口口口口 |⑤---|
5
口③③口 |①---|
口③③口 |②---|
①口口② |③---|
①口口② |----|
6
口口口口 |①---|
③口口① |②---|
口口口口 |③---|
口②④口 |④---|
7
口口口口 |①---|
口口口口 |②---|
①③③① |③---|
②口口② |----|
8
口口口口 |①---|
①口口③ |②---|
口口口口 |③---|
口④②口 |④---|
9
口口口口 |①---|
口③③口 |②---|
②口口② |③---|
①口口① |----|
10
口⑧⑦口 |①-②-|
口⑥⑤口 |③-④-|
口④③口 |⑤-⑥-|
口②①口 |⑦-⑧-|
11
①口口① |①---|
①②③① |----|
口③②口 |②---|
口口口口 |③---|
12
口口口口 |①---|
①③③② |②---|
②③③① |③---|
口口口口 |----|
13
②口口① |①---|
口④③口 |②---|
口④③口 |③---|
口口口口 |④---|
14
口口口口 |①---|
①口口口 |----|
①口口口 |----|
口口口口 |----|
15
口口口口 |①---|
④口口② |②---|
口口口口 |③---|
③口口① |④---|
16
口①①口 |①---|
口②②口 |②---|
口③③口 |③---|
口④④口 |④---|
17
④口口② |①---|
口口口口 |②---|
③口口① |③---|
口口口口 |④---|
18
④④口口 |①---|
口口③③ |②---|
②②口口 |③---|
口口①① |④---|
19
③口口① |①---|
口口口口 |②---|
④口口② |③---|
口口口口 |④---|
20
口口①① |①---|
②②口口 |②---|
口口③③ |③---|
④④口口 |④---|
21
口③③口 |①---|
②口口① |②---|
口口口口 |③---|
口④④口 |④---|
22
口口口③ |①---|
④口口① |--②-|
②口口③ |③---|
口口口① |--④-|
23
口⑤⑤口 |①-②-|
口⑤⑤口 |③-④-|
口④③口 |⑤---|
口②①口 |----|
24
③口口④ |①-②-|
口口口口 |----|
④②①③ |③---|
口②①口 |④---|
25
④口口③ |①-②-|
口口口口 |----|
③①②④ |③---|
口①②口 |④---|
26
口③③口 |--①-|
口④⑤口 |②---|
口②①口 |③-④-|
口口口口 |⑤---|
27
①③③② |①---|
口③③口 |②---|
②口口① |③---|
口口口口 |----|
28
③口口④ |①-②-|
口口口口 |----|
④②①③ |③---|
口②①口 |④---|
29
③口口④ |①-②-|
口口口口 |----|
④①②③ |③---|
口①②口 |④---|
30
口口口口 |--①-|
④④⑤⑤ |②-③-|
口①②③ |④---|
口口口口 |⑤---|
31
口③③口 |①---|
口③③口 |②---|
①口口② |③---|
①口口② |----|
32
口口口口 |①---|
②口口④ |②---|
口口口口 |③---|
①口口③ |④---|
33
口口口口 |①-②-|
口⑤⑤口 |③-④-|
①②③④ |⑤---|
口口口口 |----|
34
③口口① |①---|
口口口口 |②---|
④口口② |③---|
口口口口 |④---|
35
口口口口 |①-②-|
④③②① |③-④-|
口⑤⑤口 |⑤---|
口口口口 |----|
36
②④④② |①---|
口口口口 |②---|
①③③① |③---|
口口口口 |④---|
37
⑤口口⑤ |①-②-|
⑥口口⑥ |③-④-|
⑦④③⑦ |⑤-⑥-|
口②①口 |⑦---|
38
口口口口 |----|
口口口口 |----|
口口口口 |----|
口口口口 |----|
39
口口口③ |①---|
④口口① |--②-|
②口口③ |③---|
口口口① |--④-|
40
口⑤⑤口 |①-②-|
口⑤⑤口 |③-④-|
口④③口 |⑤---|
口②①口 |----|
41
③口口口 |①---|
①口口④ |--②-|
③口口② |③---|
①口口口 |--④-|
42
口⑤⑤口 |①-②-|
口⑤⑤口 |③-④-|
口③④口 |⑤---|
口①②口 |----|
43
口口口口 |①-②-|
③口口口 |----|
口口②① |③---|
④口口口 |④---|
44
③口口口 |①-②-|
口口②① |----|
④口口口 |③---|
口口口口 |④---|
45
口口口口 |--①-|
口④④口 |②-③-|
口③②① |④---|
口⑤⑤口 |⑤---|
46
口③③口 |①---|
②③③① |②---|
口②①口 |③---|
口口口口 |----|
47
口口口口 |①-②-|
口口口③ |----|
①②口口 |③---|
口口口④ |④---|
48
口口口③ |①-②-|
①②口口 |----|
口口口④ |③---|
口口口口 |④---|
49
口口口口 |--①-|
口④④口 |②-③-|
①②③口 |④---|
口⑤⑤口 |⑤---|
50
①口口② |①---|
①③③② |②---|
口③③口 |③---|
口口口口 |----|
51
④④③③ |①-②-|
②口口① |----|
②口口① |③-④-|
口⑥⑤口 |⑤-⑥-|
52
③③④④ |①-②-|
①口口② |----|
①口口② |③-④-|
口⑤⑥口 |⑤-⑥-|
53
口③③口 |--①-|
口①②口 |②---|
口⑤④口 |③-④-|
口口口口 |⑤---|
54
①③③② |①---|
口③③口 |②---|
②口口① |③---|
口口口口 |----|
55
④④③③ |①-②-|
②口口① |----|
②口口① |③-④-|
口⑥⑤口 |⑤-⑥-|
56
③③④④ |①-②-|
①口口② |----|
①口口② |③-④-|
口⑤⑥口 |⑤-⑥-|
57
口口口口 |--①-|
④④⑤⑤ |②-③-|
口①②③ |④---|
口口口口 |⑤---|
58
口③③口 |①---|
口③③口 |②---|
①口口② |③---|
①口口② |----|
59
⑧口口⑦ |①-②-|
口⑥⑤口 |③-④-|
④口口③ |⑤-⑥-|
口②①口 |⑦-⑧-|
60
口③①口 |①-②-|
⑤⑥⑥⑤ |③-④-|
口④②口 |⑤---|
口⑥⑥口 |⑥---|

不確定度: 0

最終更新:2017年08月16日 01:07