見習い天使と星降りの丘
DJ TOTTO

BASIC

Level: 4
BPM: 174
Notes: 264

1
口口口口 |----|
口口口口 |----|
口口口口 |----|
口口口口 |----|
2
口口口口 |①---|
口口口口 |----|
③口口① |②---|
口口②口 |③---|

口口口口 |----|
口⑤⑤口 |④---|
口口口口 |⑤---|
口④口口
3
口口口口 |①---|
口口口口 |----|
③口口① |②---|
口口②口 |③---|

口口口口 |----|
口⑤⑤口 |④---|
口口口口 |⑤---|
口④口口
4
口口口口 |①---|
口口口口 |----|
③口口① |②---|
口口②口 |③---|

口口口口 |----|
口⑤⑤口 |④---|
口口口口 |⑤---|
口④口口
5
口口口口 |①---|
口口口口 |----|
③口口① |②---|
口口②口 |③---|

口口口口 |----|
口⑤⑤口 |④---|
口口口口 |⑤---|
口④口口
6
口口口口 |①---|
口口口口 |----|
口①①口 |----|
口口口口 |----|
7
①口口① |①---|
口口口口 |----|
口口口口 |----|
口口口口 |----|
8
口口口口 |①---|
口口口口 |②---|
口口口口 |③---|
①②③④ |④---|
9
口口口口 |①---|
口口口口 |②---|
①②③④ |③---|
口口口口 |④---|
10
口口口口 |①---|
①②③④ |②---|
口口口口 |③---|
口口口口 |④---|
11
①②③④ |①---|
口口口口 |②---|
口口口口 |③---|
口口口口 |④---|
12
①②③④ |①---|
口口口口 |②---|
口口口口 |③---|
口口口口 |④---|
13
口口口口 |①---|
①②③④ |②---|
口口口口 |③---|
口口口口 |④---|
14
口口口口 |①---|
口口口口 |----|
③口口① |②---|
口口②口 |③---|
15
口口口口 |----|
口②②口 |①---|
口③③口 |②---|
口①口口 |③---|
16
口口口口 |①---|
口口口口 |②---|
口口口口 |③---|
④③②① |④---|
17
口口口口 |①---|
口口口口 |②---|
④③②① |③---|
口口口口 |④---|
18
口口口口 |①---|
④③②① |②---|
口口口口 |③---|
口口口口 |④---|
19
④③②① |①---|
口口口口 |②---|
口口口口 |③---|
口口口口 |④---|
20
④③②① |①---|
口口口口 |②---|
口口口口 |③---|
口口口口 |④---|
21
口口口口 |①---|
④③②① |②---|
口口口口 |③---|
口口口口 |④---|
22
口口口口 |①---|
口口口口 |----|
③口口① |②---|
口口②口 |③---|
23
口口口口 |----|
②口口② |①---|
③口口③ |②---|
口①口口 |③---|
24
口口口口 |①---|
口口口口 |----|
口②①口 |②---|
口口口口 |----|
25
口口口口 |①---|
口口口口 |----|
②口口② |②---|
口口①口 |----|
26
口口口口 |①---|
口口口口 |----|
口①②口 |②---|
口口口口 |----|
27
口口口口 |①---|
①口口① |----|
口口口口 |----|
口口口口 |----|
28
口口口口 |①---|
口口口口 |----|
口口口口 |②---|
口口②① |----|
29
口口口口 |①---|
口口口口 |----|
口口口口 |②---|
②①口口 |----|
30
口口口口 |①---|
口口口口 |----|
①②口口 |②---|
口口口口 |----|
31
口口口口 |①---|
②口口② |----|
口口①口 |②---|
口口口口 |----|
32
口口口口 |①---|
口②①口 |----|
口口口口 |②---|
口口口口 |----|
33
②口口② |①---|
口口口口 |----|
口口①口 |②---|
口口口口 |----|
34
口口口口 |①---|
口①②口 |----|
口口口口 |②---|
口口口口 |----|
35
口口口口 |①---|
口口②口 |----|
口①①口 |②---|
口口口口 |----|
36
①口口① |①---|
口②口口 |----|
口口口口 |②---|
口口口口 |----|
37
口口口口 |①---|
口口①口 |----|
口②口口 |②---|
口口口口 |----|
38
口①①口 |①---|
口口口口 |----|
口口口口 |----|
口口口口 |----|
39
①口口口 |①---|
②口口口 |②---|
③口口口 |③---|
④口口口 |④---|
40
口口口口 |①---|
④口口④ |②---|
口③口口 |③---|
口①②口 |④---|
41
口口口口 |----|
口口口口 |----|
口口口② |①---|
口口口① |②---|
42
口口口口 |①---|
口口口① |②---|
口口口口
口口②口

口口口口
④口口④
口口口口 |③---|
口③口口 |④---|
43
①口口口 |----|
②口口口 |----|
口口口口 |①---|
口口口口 |②---|
44
口口口口 |①---|
④口口④ |②---|
①口口口 |③---|
口②③口 |④---|
45
口口口口 |----|
口口口③ |①---|
口口口② |②---|
口口口① |③---|
46
①①①① |--①-|
口口口口 |----|
口口口口 |----|
口口口口 |----|
47
口口口口 |①---|
①口口② |②---|
③口口④ |③---|
口口口口 |④---|
48
④口口④ |①---|
口口口口 |②---|
口②③口 |③---|
①口口口 |④---|
49
口口口口 |----|
口口口① |----|
口口口② |①---|
口口口口 |②---|
50
④口口④ |①---|
口口口口 |②---|
口口口口 |③---|
口③②① |④---|
51
①口口口 |----|
②口口口 |----|
口口口口 |①---|
口口口口 |②---|
52
④口口④ |①---|
口口口口 |②---|
①口口口 |③---|
口②③口 |④---|
53
口口口口 |----|
口口口③ |①---|
口口口② |②---|
口口口① |③---|
54
口①①口 |①---|
口口口口 |----|
口口口口 |----|
口口口口 |----|
55
口口口口 |①---|
口①②口 |②---|
口③口口 |③---|
口口口口 |----|
56
口口口口 |①---|
口口口① |②---|
口④③② |③---|
口口口口 |④---|
57
口①①口 |①---|
口②②口 |②---|
口口口口 |----|
口③③口 |③---|
58
口口口口 |①---|
口口口口 |②---|
①②③④ |③---|
口口口口 |④---|
59
口口口口 |①---|
④③②① |②---|
口口口口 |③---|
口口口口 |④---|
60
口①①口 |①---|
口口口口 |----|
口口口口 |----|
口口口口 |----|
61
口口口口 |①---|
口①②口 |②---|
口③④口 |③---|
口口口口 |④---|
62
口口口口 |①---|
口口口口 |②---|
口口口口 |③---|
③①②④ |④---|
63
口口口口 |①---|
③口口④ |②---|
①口口② |③---|
口口口口 |④---|
64
①①口口 |①---|
口口口口 |----|
②②口口 |②---|
口口口口 |----|
65
口口①① |①---|
口口口口 |----|
口口②② |②---|
口口口口 |----|
66
口口口口 |①---|
①①口口 |----|
口口口口 |②---|
②②口口 |----|
67
口口口口 |①---|
口口①① |----|
口口口口 |②---|
口口②② |----|
68
口口口口 |①---|
口口口口 |②---|
①②④③ |③---|
口口口口 |④---|
69
②口口② |①---|
口①①口 |②---|
口口口口
口口口口

口口口口
口③口口
口口口口 |----|
口口口口 |③---|
70
口口口口 |①---|
口口①② |②---|
口口④③ |③---|
口口口口 |④---|
71
口口口口 |①---|
口③③口 |②---|
口①口口 |③---|
口②②口 |----|
72
口口口口 |①---|
口口口口 |----|
口①①口 |----|
口口口口 |----|
73
口口口口 |①---|
③口口④ |②---|
①口口② |③---|
口口口口 |④---|
74
口口口口 |①---|
口①①口 |----|
口①①口 |----|
口口口口 |----|

不確定度: 0

最終更新:2017年08月16日 00:53