見習い天使と星降りの丘
DJ TOTTO

ADVANCED

Level: 8
BPM: 174
Notes: 553

1
口口口口 |----|
口口口口 |----|
口口口口 |----|
口口口口 |----|
2
口口口口 |①--②|
口④③口 |--③-|
②口⑥口 |④---|
口⑤口① |⑤--⑥|

口口口口 |--⑦-|
⑦口口⑧ |⑧---|
口口口口 |⑨---|
口⑨口口
3
口口口口 |①--②|
口④③口 |--③-|
②口⑥口 |④---|
口⑤口① |⑤--⑥|

口口口口 |--⑦-|
⑦口口⑧ |⑧---|
口口口口 |⑨---|
口⑨口口
4
口口口口 |①--②|
口④③口 |--③-|
②口⑥口 |④---|
口⑤口① |⑤--⑥|

口口口口 |--⑦-|
⑦口口⑧ |⑧---|
口口口口 |⑨---|
口⑨口口
5
口口口口 |①--②|
口④③口 |--③-|
②口⑥口 |④---|
口⑤口① |⑤--⑥|

口口口口 |--⑦-|
⑦口口⑧ |⑧---|
口口口口 |⑨---|
口⑨口口
6
⑤口口⑥ |①②③④|
口③④口 |-⑤-⑥|
口①②口
口口口口

口口口口
口口口口
⑩⑪⑫⑬ |-⑦⑧⑨|
口⑦⑧⑨ |⑩⑪⑫⑬|
7
口①①口 |①---|
口口口口 |----|
口口口口
口口口口

口②口口
口口口口
口口口口 |----|
口口口口 |--②-|
8
口口口口 |①---|
口口①口 |②-③-|
口③②口 |----|
口口口④ |④---|
9
口④②口 |----|
④⑤⑤② |--①-|
①口口③ |②-③-|
口①③口 |④-⑤-|
10
③口口② |①---|
口口口口 |--②-|
口①①口 |----|
②口口③ |③---|
11
口口口① |----|
口口②口 |--①-|
口口口③ |②-③-|
口⑤④口 |④-⑤-|
12
口口③② |①---|
口口③② |--②-|
①口口口 |----|
口口口口 |③---|
13
口口口口 |----|
口口口口 |----|
口口口口 |----|
口口口口 |----|
14
口口口口 |①--②|
口④③口 |--③-|
②口⑥口 |④---|
口⑤口① |⑤--⑥|
15
口③③口 |--①-|
①④④② |②---|
口口口口 |③---|
口⑤口口 |④-⑤-|
16
口口口口 |①---|
口④⑤口 |--②-|
③口①口 |--③-|
口口②口 |④-⑤-|
17
口口口口 |①---|
口口口口 |--②-|
②口口口
②口口①

④④口③
口⑥口③
口口⑥口 |③-④-|
口口⑤⑤ |⑤-⑥-|
18
口口③口 |①---|
②口①口 |--②-|
口①口③ |----|
口②口口 |③---|
19
①口口口 |----|
口②口口 |--①-|
③口口口 |②-③-|
口④⑤口 |④-⑤-|
20
口口口口 |①---|
口口③口 |--②-|
口②口① |③---|
口口口口 |----|
21
口口口口 |----|
口口口口 |----|
口口口口 |①---|
口①①口 |----|
22
口口口口 |①--②|
口④③口 |--③-|
②口⑥口 |④---|
口⑤口① |⑤--⑥|
23
口③③口 |--①-|
①④④② |②---|
口口口口 |③---|
口口口口 |④---|
24
①口口② |①-②-③-|
③口口④ |④-⑤-⑥-|
⑤⑪⑫⑥ |⑦-⑧-⑨-|
⑦⑨⑩⑧ |⑩-⑪-⑫-|
25
口口口② |①---②-|
口①③口 |--③---|
④口口口 |④-----|
口⑥⑤口 |--⑤-⑥-|
26
口⑤口③ |①---②-|
②④⑥口 |--③---|
口⑦①口 |④---⑤-|
口口⑧口 |⑥-⑦-⑧-|
27
口口口口 |①---|
口口口口 |----|
口口口口 |----|
口①口口 |----|
28
①口口② |①-②-③-|
③口口④ |④-⑤-⑥-|
⑤⑪⑫⑥ |⑦-⑧-⑨-|
⑦⑨⑩⑧ |⑩-⑪-⑫-|
29
④口口② |①---②-|
口①③⑤ |--③---|
⑥口口口 |④---⑤-|
口口口口 |--⑥---|
30
口⑦口口 |①-②-③-|
口⑤⑥口 |④-⑤-⑥-|
口③④口 |⑦-----|
口①②口 |------|
31
口口⑦口 |①-②-③-|
⑧⑥⑤口 |④-⑤-⑥-|
口④③⑨ |⑦-----|
口②①口 |--⑧-⑨-|
32
⑤口⑥口 |①-②-③-|
口⑦⑫④ |④-⑤-⑥-|
③⑪⑧口 |⑦-⑧-⑨-|
①⑨⑩② |⑩-⑪-⑫-|
33
口①口② |①---②-|
口③口口 |--③---|
口⑥口口 |④-----|
口口⑤④ |--⑤-⑥-|
34
②口⑤口 |①---②-|
口⑥①③ |--③---|
④口⑦口 |④---⑤-|
口⑧口口 |⑥-⑦-⑧-|
35
⑥口口⑤ |①-----|
④口口⑦ |------|
口口口③ |②-③-④-|
②口①口 |⑤-⑥-⑦-|
36
口口口口 |①-----|
口⑤②口 |--②-③-|
①③⑥口 |④-----|
口口④口 |--⑤-⑥-|
37
口⑤口口 |①-----|
⑨口⑥④ |②-③-④-|
③⑦口⑩ |⑤-⑥-⑦-|
口①⑧② |⑧-⑨-⑩-|
38
口口口口 |①---|
口口口口 |----|
口口口口 |----|
①口口口 |----|
39
口⑨⑨口 |①②③④|
⑫⑩⑪口 |⑤⑥⑦⑧|
①②③④ |⑨-⑩-|
⑤⑥⑦⑧ |⑪-⑫-|
40
①口口① |①---|
口口口口 |②-③-|
口②③口
口口口口

⑥口口⑥
口口口口
口口口口 |④-⑤-|
口④⑤口 |⑥---|
41
口口口口 |----|
②③④⑤ |--①-|
口口①口 |②③④⑤|
口⑥⑦⑧ |⑥⑦⑧-|
42
①口口① |①---|
口口口口 |②-③-|
口②③口
口口口口

⑥口口⑥
口口口口
口口口口 |④-⑤-|
口④⑤口 |⑥---|
43
口口口口 |----|
口⑨⑩口 |--①②|
⑤⑥⑦⑧ |③④⑤⑥|
①②③④ |⑦⑧⑨⑩|
44
①口口① |①---|
口口口口 |②-③-|
口口口口
口②③口

⑥口口⑥
口口口口
口④⑤口 |④-⑤-|
口口口口 |⑥---|
45
③口口口 |----|
口④口口 |--①②|
口口⑤口 |③-④-|
口①②⑥ |⑤-⑥-|
46
④①①口 |--①-|
①口口① |-②--|
②口口③ |③---|
口②③口 |--④-|
47
口口口④ |①-②-|
口①⑤口 |③-④-|
口⑥②口 |⑤-⑥-|
⑦口⑧③ |⑦-⑧-|
48
口①①口 |①---|
③口口② |②-③-|
③口口②
口口口口

⑥⑥⑥⑥
口⑤④口
口⑤④口 |④-⑤-|
口口口口 |⑥---|
49
口口口口 |----|
②③④⑤ |--①-|
口口①口 |②③④⑤|
口⑥⑦⑧ |⑥⑦⑧-|
50
①口口① |①---|
②口③口 |②-③-|
口②口③
口口口口

⑥⑥⑥⑥
口④口⑤
④口⑤口 |④-⑤-|
口口口口 |⑥---|
51
口口口口 |----|
口⑨⑩口 |--①②|
⑤⑥⑦⑧ |③④⑤⑥|
①②③④ |⑦⑧⑨⑩|
52
①口口① |①---|
②口口③ |②-③-|
口口口口
口②③口

⑥⑥⑥⑥
口口口口
口④⑤口 |④-⑤-|
④口口⑤ |⑥---|
53
口口口口 |----|
①口口口 |①-②-|
②⑤⑥口 |③-④-|
口③④口 |⑤-⑥-|
54
①口⑤① |①-②-|
口②②口 |-③--|
③口口④ |④---|
口③④口 |--⑤-|
55
口①口口 |①-②-|
口③②口 |③-④-|
口⑤④口 |⑤---|
口口口口 |----|
56
口口口⑥ |①---|
口口口⑤ |②---|
口②②④ |③-④-|
口①①③ |⑤-⑥-|
57
口口③口 |①---|
口①①④ |②-③-|
口②口口 |----|
口口口口 |④---|
58
⑦口③口 |①---|
⑥口口口 |②-③-|
⑤②②口 |④-⑤-|
④①①口 |⑥-⑦-|
59
口口口口 |①-②-|
口口①① |③-④-|
口③口② |--⑤-|
⑤⑤口④ |----|
60
①口口① |①---|
口口②口 |②---|
口③口口 |③---|
口口④口 |④---|
61
口②①口 |①-②-|
口④③口 |③-④-|
口⑥⑤口 |⑤-⑥-|
口⑧⑦口 |⑦-⑧-|
62
②口口① |①-②-|
④⑤口③ |③-④-|
口⑥口口 |--⑤-|
口⑦口口 |⑥-⑦-|
63
口口口④ |①-②-|
口⑤⑤③ |③-④-|
口口口② |--⑤-|
口口口① |----|
64
①①④口 |①-②-|
⑤⑤口③ |③-④-|
②②⑧口 |⑤-⑥-|
⑥⑥口⑦ |⑦-⑧-|
65
①①④口 |①-②-|
口⑤⑤③ |③-④-|
②②口口 |⑤---|
口⑥⑥口 |⑥---|
66
①①口③ |①-②-|
⑤⑤④口 |③-④-|
②②口⑦ |⑤-⑥-|
⑥⑥⑧口 |⑦-⑧-|
67
①①口③ |①-②-|
⑤⑤④口 |③-④-|
②②口⑦ |⑤-⑥-|
⑥⑥⑧口 |⑦-⑧-|
68
①②④③ |①-②-|
⑤⑥⑧⑦ |③-④-|
口口口口 |⑤-⑥-|
口口口口 |⑦-⑧-|
69
②口口② |①---|
口③③口 |②---|
口①①口 |--③-|
口口口口 |----|
70
口口口口 |①-②-|
口口口口 |③-④-|
⑧⑦⑥⑤ |⑤-⑥-|
①②③④ |⑦-⑧-|
71
②③④口 |①---|
口①①口 |②-③-|
口口口口 |④---|
口口口口 |----|
72
口口口口 |①---|
口口口口 |----|
口口口口 |----|
口①①口 |----|
73
⑩⑪⑫口 |①-②-③-|
口⑨⑧⑦ |④-⑤-⑥-|
④⑤⑥口 |⑦-⑧-⑨-|
口③②① |⑩-⑪-⑫-|
74
口口口口 |①---|
口口口口 |----|
口口口口 |----|
口①①口 |----|
75
口口口口 |----|
口口口口 |----|
①口口口 |①---|
口口口口 |----|

不確定度: 0

最終更新:2017年08月16日 00:53