Windy Fairy [2]
DJ TOTTO

BASIC

Level: 4
BPM: 180
Notes: 278

1
口口口口 |----|
口口口口 |----|
口口口口 |----|
口口口口
2
口口口口 |①---|
口口口口 |----|
①口口口 |----|
口口口口
3
口口口口 |①---|
口口口口 |----|
口①口口 |----|
口口口口
4
口口口口 |①---|
口口口口 |----|
口口①口 |----|
口口口口
5
口口口口 |①---|
口口口口 |----|
口口口① |----|
口口口口
6
口口口口 |①---|
口口口口 |----|
口口口口 |----|
口口口①
7
口口口口 |①---|
口口口口 |----|
口口口口 |----|
口口①口
8
口口 |①---|
口口 |----|
口口 |----|
口口
9
口口口口 |----|
口口口口 |----|
口口口口 |①---|
口口
10
口口口口 |①---|
口口口口 |----|
口口口口 |----|
口口①口
11
口口口口 |①---|
口口口口 |----|
口口口口 |----|
口①口口
12
口口口口 |①---|
口口口口 |----|
口口①口 |----|
口口口口
13
口口口口 |①---|
口口口口 |----|
口①口口 |----|
口口口口
14
口口①口 |①---|
口口口口 |----|
口口口口 |----|
口口口口
15
口①口口 |①---|
口口口口 |----|
口口口口 |----|
口口口口
16
口口口口 |①---|
口口①口 |----|
口口口口 |----|
口口口口
17
口口口口 |①---|
口①口口 |----|
口口口口 |----|
口口口口
18
口口口① |①---|
口口口② |②---|
口口口③ |③---|
口口口口
19
口口口口 |①---|
口口口口 |②---|
口口口口 |③---|
口③②①
20
口口口口 |①---|
③口口口 |②---|
②口口口 |③---|
①口口口
21
①②③口 |①---|
口口口口 |②---|
口口口口 |③---|
口口口口
22
口口口口 |①---|
口①②口 |②---|
口③口口 |③---|
口口口口
23
口口口口 |①---|
口口口口 |②---|
口口①口 |③---|
口②③口
24
口口 |①---|
口口 |----|
口口 |----|
口口口口
25
口 |①---|
口 |----|

口口口口

口口口口
口口口口
口 |②---|
口口口口
26
口口口口 |①---|
①口口口 |----|
口口口口 |----|
口口口口
27
口口口口 |①---|
口口口口 |----|
口①口口 |----|
口口口口
28
口口口口 |①---|
口口口 |----|
口口口 |----|
口口
29
口口口口 |①---|
②口口口 |②---|
③口口口 |③---|
口口
30
口口口口 |①---|
口口口口 |----|
口口口口 |----|
①口口口
31
口口口口 |①---|
口口口口 |----|
口①口口 |----|
口口口口
32
口口口口 |①---|
口口①① |----|
口口口口 |----|
口口口口
33
口①①口 |①---|
口口口口 |----|
口口口口 |----|
口口口口
34
口口口口 |①---|
口①口口 |----|
口口口口 |----|
口口口口
35
口口口口 |①---|
口口口口 |----|
口口①口 |----|
口口口口
36
口口口口 |①---|
口口口 |----|
口口口 |----|
口口口
37
口口口口 |①---|
②口口口 |②---|
③口口口 |③---|
口口口
38
口口口口 |①---|
口口口口 |----|
口口口口 |----|
①口口口
39
口口口口 |①---|
口口口口 |----|
口①口口 |----|
口口口口
40
口①①口 |①---|
口口口口 |----|
口口口口 |----|
口口口口
41
口口口口 |①---|
口①①口 |----|
口口口口 |----|
口口口口
42
口口口口 |①---|
①口口口 |----|
口②口口 |②---|
口口口口
43
口口口口 |①---|
口口口口 |②---|
口口①③ |③---|
口口口②
44
口口口口 |①---|
|----|
口口口口 |----|
口口口口
45
口口口口 |①---|
②口口 |②---|
③口口口 |③---|
口口口口
46
口口口口 |①---|
口口口口 |----|
口②口口 |②---|
①口口口
47
口口口口 |①---|
口口口口 |②---|
口口①口 |③---|
口②③口
48
③口口口 |①---|
②口口口 |②---|
①口口口 |③---|
口口口口
49
口口口③ |①---|
口口口② |②---|
口口口① |③---|
口口口口
50
口口口口 |①---|
①口口口 |----|
口②口口 |②---|
口口口口
51
口口口口 |①---|
口口口口 |②---|
口口①③ |③---|
口口口②
52
口口口口 |①---|
|----|
口口口口 |----|
口口口口
53
口口口口 |①---|
②口口 |②---|
③口口口 |③---|
口口口口
54
口口口口 |①---|
口口口口 |----|
口②口口 |②---|
①口口口
55
口口口口 |①---|
口口口口 |②---|
口口①口 |③---|
口②③口
56
①口口口 |①---|
②口口口 |②---|
③口口口 |③---|
口口口口
57
口口口① |①---|
口口口② |②---|
口口口③ |③---|
口口口口
58
口口口 |①---|
口口口 |----|
口口口 |----|
口口口
59
口口口 |①---|
口口口 |----|
口口口 |----|
口口
60
口口口口 |①---|
口口口口 |②---|
口③口口 |③---|
口①②
61
口口口口 |①---|
口②③口 |②---|
口口①口 |③---|
口口口口
62
口口口 |①---|
口口口 |----|
口口口 |----|
口口口
63
口口 |①---|
口口口 |----|
口口口 |----|
口口口
64
口①② |①---|
口③口口 |②---|
口口口口 |③---|
口口口口
65
口口口口 |①---|
口口①口 |②---|
口②③口 |③---|
口口口口
66
口口口 |①---|
口口口 |----|
口口口 |----|
口口口
67
口口口 |①---|
口口口 |----|
口口口 |----|
口口
68
口口口口 |①---|
口口口口 |②---|
口③口口 |③---|
口①②
69
口口口口 |①---|
口②③口 |②---|
口口①口 |③---|
口口口口
70
①口口口 |①---|
②口口口 |②---|
③口口口 |③---|
口口口口
71
口口口① |①---|
口口口② |②---|
口口口③ |③---|
口口口口
72
口①口口 |①---|
口②口口 |②---|
口③口口 |③---|
口口口口
73
口口①口 |①---|
口口②口 |②---|
口口③口 |③---|
口口口口
74
口口口口 |①---|
①口口② |②---|
③口口口 |③---|
口口口口
75
口口口口 |①---|
口口口口 |②---|
口口口① |③---|
②口口③
76
口 |①---|
口 |----|
口 |----|

77
口口口口 |①---|
口口口口 |----|
②口口口 |②---|

78
口口②② |①---|
口①口口 |----|
口口口口 |②---|
口口口口
79
口口口口 |①---|
口口①① |----|
②口口口 |②---|
口口口口
80
口口②② |①---|
口①口口 |----|
口口口口 |②---|
口口口口
81
口口口口 |①---|
口口①① |②---|
口②③口 |③---|
口口口口
82
口口口① |①---|
口口口② |②---|
口口口③ |③---|
口口口口
83
口口①口 |①---|
口口②口 |②---|
口口③口 |③---|
口口口口
84
口口 |①---|
口口 |----|
口口 |----|
口口
85
口口口 |①---|
口口口 |----|
口口口 |----|

86
②②口口 |①---|
口口口口 |----|
口①口口 |②---|
口口
87
口口口口 |①---|
①①口口 |----|
口口口② |②---|
口口口口
88
②②口口 |①---|
口口①口 |----|
口口口口 |②---|
口口口口
89
口口口口 |①---|
①①口口 |②---|
口③②口 |③---|
口口口口
90
②②口口 |①---|
口口①口 |----|
口口口口 |②---|
口口口口
91
口口口口 |①---|
①①口口 |----|
口②口口 |②---|
口口口口
92
口口①① |①---|
口口口口 |----|
口口口口 |----|
口口口口
93
口口口口 |①---|
口口①① |----|
口②口口 |②---|
口口口口
94
口口口口 |①---|
口口口② |----|
口口①口 |②---|
口口口口
95
口口口口 |①---|
②口①口 |----|
口口口口 |②---|
口口口口
96
口口口口 |①---|
口①口口 |----|
口口②口 |②---|
口口口口
97
口口口口 |①---|
口口③② |②---|
口①口口 |③---|
口口口口
98
①②口口 |①---|
③口口口 |②---|
口口口口 |③---|
口口口口
99
口口②① |①---|
口口口③ |②---|
口口口口 |③---|
口口口口
100
口口口口 |①---|
口 |----|
口 |----|
口口口口
101
口口 |①---|
口口 |----|
口 |----|
口口口口
102
口口口口 |①---|
②① |②---|
口口③口 |③---|
口口口口
103
口口口口 |①---|
口口口口 |----|
②①口口 |②---|
口口口口
104
口口口口 |①---|
口①②口 |②---|
口③口口 |③---|
口口口口
105
口口口口 |①---|
口口口② |②---|
口口①③ |③---|
口口口口
106
口口口口 |①---|
口②①口 |②---|
口口③口 |③---|
口口口口
107
口口口口 |①---|
②口口口 |----|
口①口口 |②---|
口口口口
108
口①①口 |①---|
口口②口 |②---|
口③口口 |③---|
口口口口
109
口口口口 |①---|
口口口口 |----|
口口②口 |②---|
口①①口
110
①①②② |①---|
③③口口 |②---|
口口口口 |③---|
口口口口
111
口口口口 |①---|
口口①① |----|
口口口口 |②---|
口②②口
112
②口口② |①---|
口口口口 |--②-|
口①①口 |----|
口口口口
113
口①①口 |①---|
口②②口 |②---|
口③③口 |③---|
口口口口
114
口口口口 |①---|
口口口口 |----|
口口口口 |----|

115
口口口口 |----|
口口口口 |----|
口口口口 |----|
口口口口
116
口口口口 |----|
口口口口 |----|
口口口口 |----|
口口口口
117
口口口口 |----|
口口口口 |----|
口口口口 |----|
口口口口
118
口口口口 |①---|
口口口口 |----|
口口口口 |----|


不確定度: 0

最終更新:2017年08月16日 00:51