Windy Fairy [2]
DJ TOTTO

ADVANCED

Level: 7
BPM: 180
Notes: 465

1
口口口口 |----|
口口口口 |----|
口口口口 |----|
口口口口
2
口口口 |①---|
口口口 |----|
口口口 |②---|
口②口
3
口口口口 |①---|
口口口口 |----|
口②口口 |②---|
①口口
4
口口口 |①---|
口口口 |----|
口口口 |②---|
口②口
5
口口口口 |①---|
口口口口 |②---|
口③②口 |③---|
口口①
6
口口口 |①---|
口口口 |----|
口口口 |②---|
口②口
7
口口口口 |①---|
口口口口 |----|
口②口口 |②---|
①口口
8
口口口 |①---|
口口口 |----|
口口口 |----|
口口口
9
口口口口 |----|
口口口口 |----|
口口口口 |----|
口口口口
10
口②③⑤ |①-②-|
⑥④口口 |③-④-|
口口口口 |⑤-⑥-|
口口口
11
口口口口 |①---|
口②口口 |----|
口口③① |②-③-|
口口口口
12
口口口口 |①---|
⑤口口④ |②-③-|
③①口② |④-⑤-|
口口口口
13
口口①口 |①-②-|
口②口口 |③---|
口口③口 |④---|
口④④口
14
④②①口 |--①-|
口口③⑤ |②-③-|
口口口口 |④-⑤-|
口口口口
15
口口口口 |①---|
口口②口 |----|
①③口口 |②-③-|
口口口口
16
④口口① |①--②|
②口⑤① |--③-|
②口口口 |④-⑤-|
口口③③
17
口口 |①---|
口口 |----|
口口 |----|
口口
18
⑤③②口 |①-②-|
口口④⑥ |③-④-|
口口口口 |⑤-⑥-|
口口
19
口口口口 |①---|
口口②口 |----|
①③口口 |②-③-|
口口口口
20
口口口口 |①---|
④口口⑤ |②-③-|
②口①③ |④-⑤-|
口口口口
21
口①口口 |①-②-|
口口②口 |③---|
口③口口 |④---|
口④④口
22
口①②④ |--①-|
⑤③口口 |②-③-|
口口口口 |④-⑤-|
口口口口
23
口③③口 |①--②|
口口④口 |--③-|
②⑤口① |④-⑤-|
②口口①
24
口口口口 |①---|
口口口口 |----|
口口口口 |----|

25
口口 |①---|
口口 |----|
口口 |----|
口口
26
口③②口 |①---|
口口④口 |--②-|
口① |③-④-|
口口口口
27
口口口口 |①---|
口③口口 |②---|
口口②口 |③---|
口①口口
28
口 |①---|
口口口口 |----|
口口口口 |----|
口口口口
29
口口口 |①-②-|
口②口⑤ |③-④-|
⑥口③口 |⑤-⑥-|
口④口口
30
口口口口 |①---|
口④口口 |--②-|
口②③口 |③-④-|
口口口①
31
口口口① |①---|
口口口② |②---|
口口口③ |③---|
口口口口
32
口口口口 |①-②-|
口⑤口口 |③-④-|
口③④口 |⑤---|
口①②口
33
口口口口 |①-②-|
口口口⑤ |③-④-|
④口口③ |⑤---|
②口口①
34
口③②口 |①---|
口口④口 |--②-|
口口①口 |③-④-|
口口口口
35
口口口口 |①---|
口③口口 |②---|
口口②口 |③---|
口①口口
36
口 |①---|
口口口口 |----|
口口口口 |----|
口口口口
37
口口口 |①-②-|
口②口⑤ |③-④-|
⑥口③口 |⑤-⑥-|
口④口口
38
口口口口 |①---|
口④口口 |--②-|
口②③口 |③-④-|
口口口①
39
口口口③ |①---|
口口口② |②---|
口口口① |③---|
口口口口
40
口①②口 |①-②-|
口③④口 |③-④-|
口⑤口口 |⑤---|
口口口口
41
②口口① |①-②-|
④口口③ |③-④-|
口口口⑤ |⑤---|
口口口口
42
口①口口 |①---|
口①②口 |--②-|
口③口口 |③-④-|
口口④口
43
①口口口 |①---|
口口口口 |②---|
口口口口 |③---|
③口口②
44
|①---|
口口口口 |----|
口口口口 |----|
口口口口
45
口口口 |①-②-|
⑤口②口 |③-④-|
口③口⑥ |⑤-⑥-|
口口④口
46
口口口口 |①---|
口④口口 |--②-|
口②③口 |③-④-|
①口口口
47
口口口① |①---|
口口口② |②---|
口口口③ |③---|
口口口口
48
口口口口 |①-②-|
口⑤口口 |③-④-|
口③④口 |⑤---|
口①②口
49
口口口口 |①-②-|
口口口⑤ |③-④-|
④口口③ |⑤---|
②口口①
50
口①口口 |①---|
口①口口 |--②-|
口③②口 |③-④-|
口口④口
51
①口口口 |①---|
口口口口 |②---|
口口口口 |③---|
③口口②
52
|①---|
口口口口 |----|
口口口口 |----|
口口口口
53
口口口 |①-②-|
⑤口②口 |③-④-|
口③口⑥ |⑤-⑥-|
口口④口
54
口口口口 |①---|
口④口口 |--②-|
口②③口 |③-④-|
①口口口
55
口口口① |①---|
口口口② |②---|
口口口③ |③---|
口口口口
56
口①②口 |①-②-|
口③④口 |③-④-|
口⑤口口 |⑤---|
口口口口
57
②口口① |①-②-|
④口口③ |③-④-|
口口口⑤ |⑤---|
口口口口
58
口口口口 |①---|
口口口 |----|
口口
口口

口口口口
口口口口
口口口口 |②---|
口②
59
口口口 |①---|
口口口 |----|
口口口
口口口口

口口口口
口口口口
②口口 |②---|
口口口口
60
口口②① |①-②-|
口口④③ |③-④-|
口口⑥⑤ |⑤-⑥-|
口口口口
61
②口口② |①---|
③口口③ |②---|
口口口口 |③---|
口口口①
62
口口口口 |①---|
口口 |----|
口口
口口

口口口口
口口口口
口口口口 |②---|
②口
63
口口口 |①---|
口口口 |----|
口口口
口口口口

口口口口
口口口口
口口② |②---|
口口口口
64
①②口口 |①-②-|
③④口口 |③-④-|
⑤⑥口口 |⑤-⑥-|
口口口口
65
②口口② |①---|
③口口③ |②---|
口口口口 |③---|
①口口口
66
口口口 |①---|
口口口 |----|
口口
口口

口口口口
口口口口
口口口口 |②---|
口②
67
口口口 |①---|
口口口 |----|
口口口
口口口口

口口口口
口口口口
②口口 |②---|
口口口口
68
口口②① |①-②-|
口口④③ |③-④-|
口口⑥⑤ |⑤-⑥-|
口口口口
69
②口口② |①---|
③口口③ |②---|
口口口口 |③---|
口口口①
70
口口①口 |①---|
口②口口 |②---|
③口口口 |③---|
口口口口
71
口口口口 |①-②-|
⑥口口⑤ |③-④-|
口④③口 |⑤-⑥-|
口②①口
72
口①口口 |①---|
口口②口 |②---|
口口口③ |③---|
口口口口
73
口口口口 |①-②-|
⑤口口⑥ |③-④-|
口③④口 |⑤-⑥-|
口①②口
74
口口①口 |①---|
口②口口 |②---|
③口口口 |③---|
口口口口
75
口①口口 |①---|
口口②口 |②---|
口口口③ |③---|
口口口口
76
口口口口 |①---|
口口 |----|
③② |--②③|
口口
77
口口口口 |①---|
口口口① |----|
④口口⑤ |②③④⑤|
口③
78
口口口口 |①---|
①口口② |----|
口口③口 |②-③-|
口口口口
79
口口口口 |①---|
口口 |----|
口口
口口

口口口口
口口口口
口口口口 |②---|
②口
80
口口口 |①---|
口口口
口口口
口口口口

口口口口
④口口口 |--②-|
②③口 |③-④-|
口口口口
81
口口口口 |①---|
口①口口 |②-③-|
口⑤④口 |④-⑤-|
口③②口
82
口口口① |①-②-|
口⑥⑤② |③-④-|
口口口③ |⑤-⑥-|
口口口④
83
①口口口 |①-②-|
②口口口 |③-④-|
③⑤⑥口 |⑤-⑥-|
④口口口
84
口口口 |①---|
口口口 |----|
口口口 |----|
口口口口
85
口口口 |①---|
口口口 |----|
口口 |----|
口口口口
86
口口口口 |①---|
口口①② |----|
口③口 |②-③-|
口口口口
87
口口口口 |①---|
口口 |----|
口口
口口

口口口口
口口口口
口口口口 |②---|
②口
88
口口口 |①---|
口口口
口口口
口口口口

口口口口
④口口口 |--②-|
②③口 |③-④-|
口口口口
89
口口口② |①---|
口①口③ |②---|
口口口口 |③---|
口口口口
90
口口口口 |①---|
口④口口 |--②-|
口②③① |③-④-|
口口口口
91
口口口口 |①---|
口口①口 |--②-|
②③④口 |③-④-|
口口口口
92
口口口 |①---|
口口口 |----|
口口口 |----|
口口口口
93
口口口 |①---|
口口口 |----|
口口
口口口口

口口口口
口口口口
⑤④口 |②③④⑤|
口③②口
94
口口②口 |①---|
口③①口 |----|
口口口口 |②-③-|
口口口口
95
口口口 |①---|
口口口 |----|
口口口
口口口口

口口口口
口口口口
口②口 |②---|
口口口口
96
口②口口 |①---|
口口③口 |----|
口口口口 |②-③-|
口①口口
97
口口口口 |①---|
口口口口 |②-③-|
口④⑤① |④-⑤-|
口②③口
98
①口口口 |①-②-|
②⑤⑥口 |③-④-|
③口口口 |⑤-⑥-|
④口口口
99
口口口① |①-②-|
口口口② |③-④-|
口⑥⑤③ |⑤-⑥-|
口口口④
100
口口口 |①---|
口口口 |----|
口口口 |----|
口口口口
101
口口口 |①---|
口口口 |----|
口口 |----|
口口口口
102
口①①口 |①-②-|
口②⑤口 |③-④-|
口⑥③ |⑤-⑥-|
口④口口
103
口口口口 |①---|
口口口口 |----|
口口口口


口口口口
口口口口
②口口口 |②---|
口口
104
⑤①①⑤ |①-②-|
⑥②口⑥ |③-④-|
口口③口 |⑤-⑥-|
口④口口
105
口口口口 |①---|
口③②口 |②---|
①口口① |③---|
口口口口
106
①口口① |①-②-|
口口④口 |③-④-|
口③⑥口 |⑤-⑥-|
口⑤②口
107
口口口口 |①---|

口口口口
口口口口

口口口口
口④ |--②-|
口口口③ |③-④-|
口口口②
108
①口②口 |①-②-|
③口④口 |③-④-|
⑤口⑥口 |⑤-⑥-|
口口口口
109
口口 |①---|
口口
口口
口口

口口口口
口口口④ |--②-|
口口口③ |③-④-|
口②
110
⑥①②口 |①②③④|
⑦③④口 |⑤-⑥-|
⑧⑤口口 |⑦-⑧-|
口口口口
111
口口口口 |①---|
口口口口 |--②-|
口口④口 |③-④-|
①③②口
112
①①②② |①---|
口口口口 |--②-|
口口口口 |----|
口口口口
113
口口口口 |①---|
③口口③ |②---|
②口口② |③---|
①口口①
114
口 |①---|
口 |----|
口 |----|

115
口口口口 |----|
口口口口 |----|
口口口口 |----|
口口口口
116
口口口口 |----|
口口口口 |----|
口口口口 |----|
口口口口
117
口口口口 |----|
口口口口 |----|
口口口口 |----|
口口口口
118
口口口口 |①---|
口口口口 |----|
口口口口 |----|


不確定度: 0

最終更新:2017年08月16日 00:50