スカイダイバー
ヒゲドライバー feat.ヒゲドライVAN

BASIC

Level: 3
BPM: 180
Notes: 215

1
口口口口 |----|
口口口口 |----|
口口口口 |----|
口口口口 |----|
2
口口口口 |①---|
口口①口 |----|
口口口口 |----|
口口口口 |----|
3
口口口口 |①---|
口口口口 |----|
口口①口 |----|
口口口口 |----|
4
口口口口 |①---|
口①口口 |----|
口口口口 |----|
口口口口 |----|
5
口口口口 |①---|
口口口口 |----|
口①口口 |----|
口口口口 |----|
6
口口口口 |①---|
口口口口 |----|
口口②① |②---|
口口口口 |----|
7
口口口口 |①---|
口口口口 |----|
②①口口 |②---|
口口口口 |----|
8
口口口口 |①---|
①②口口 |----|
口口口口 |②---|
口口口口 |----|
9
口口口口 |①---|
口口①② |----|
口口口口 |②---|
口口口口 |----|
10
口口口口 |①---|
口口口口 |----|
口口②① |②---|
口口口口 |----|
11
口口口口 |①---|
口口口口 |----|
②①口口 |②---|
口口口口 |----|
12
口①①口 |①---|
口口口口 |----|
口口口口 |----|
口口口口 |----|
13
口口口口 |----|
口口口口 |----|
口口口口 |----|
口口口口 |----|
14
口口口口 |①---|
口口口口 |----|
口口②① |②---|
口口口口 |----|
15
口口口口 |①---|
口口口口 |----|
②①口口 |②---|
口口口口 |----|
16
口口口口 |①---|
①②口口 |----|
口口口口 |②---|
口口口口 |----|
17
口口口口 |①---|
口口①② |----|
口口口口 |②---|
口口口口 |----|
18
口口口口 |①---|
口口口口 |----|
口口②① |②---|
口口口口 |----|
19
口口口口 |①---|
口口口口 |----|
②①口口 |②---|
口口口口 |----|
20
口①①口 |①---|
口口口口 |----|
口口口口 |----|
口口口口 |----|
21
口口口口 |①---|
口口口口 |----|
口口口口 |----|
口口①口 |----|
22
口口口口 |①---|
口口口口 |----|
口口口口 |----|
口①口口 |----|
23
口口口口 |①---|
口口口口 |----|
口口①口 |----|
口口口口 |----|
24
口口口口 |①---|
口口口口 |----|
口①口口 |----|
口口口口 |----|
25
口口口口 |①---|
口口①口 |----|
口口口口 |----|
口口口口 |----|
26
口口口口 |①---|
口①口口 |----|
口口口口 |----|
口口口口 |----|
27
口口①口 |①---|
口口口口 |----|
口口口口 |----|
口口口口 |----|
28
口①口口 |①---|
口②口口 |----|
口口口口 |②---|
口口口口 |----|
29
口口口口 |①---|
口口口口 |----|
口①口口 |②---|
口②口口 |----|
30
口口①口 |①---|
口口②口 |----|
口口口口 |②---|
口口口口 |----|
31
口口口口 |①---|
口口口口 |----|
口口①口 |②---|
口口②口 |----|
32
口①口口 |①---|
口②口口 |----|
口口口口 |②---|
口口口口 |----|
33
口口口口 |①---|
口口口口 |----|
口①口口 |②---|
口②口口 |----|
34
口口口口 |①---|
口口口口 |----|
口口②口 |②---|
口口①口 |----|
35
口口②口 |①---|
口口①口 |----|
口口口口 |②---|
口口口口 |----|
36
口口口口 |①---|
①①口口 |--②-|
②②口口 |----|
③③口口 |③---|
37
口口口口 |----|
口口口口 |----|
口口口口 |----|
口口口口 |----|
38
口口口口 |①---|
口口①① |--②-|
口口②② |----|
口口③③ |③---|
39
口口口口 |----|
口口口口 |----|
口②①口 |①---|
口口口口 |②---|
40
口口口① |①---|
口口②口 |----|
口口口口 |②---|
口口口口 |----|
41
口口口口 |①---|
口口口口 |----|
口①口口 |②---|
②口口口 |----|
42
①口口口 |①---|
口②口口 |----|
口口口口 |②---|
口口口口 |----|
43
口口口口 |①---|
口口口口 |----|
口口①口 |②---|
口口口② |----|
44
口口口① |①---|
口口②口 |----|
口口口口 |②---|
口口口口 |----|
45
口口口口 |①---|
口口口口 |----|
口①口口 |②---|
②口口口 |----|
46
①口口口 |①---|
口②口口 |----|
口口口口 |②---|
口口口口 |----|
47
口口口口 |①---|
口口口口 |----|
口口①口 |②---|
口口口② |----|
48
口口口口 |①---|
口口①口 |②---|
口②口口 |③---|
口口③口 |----|
49
口口口口 |①---|
口口①口 |②---|
口②口口 |③---|
口口③口 |----|
50
口口口口 |①---|
口①口口 |②---|
口口②口 |③---|
口③口口 |----|
51
口口口口 |①---|
口①口口 |②---|
口口②口 |③---|
口③口口 |----|
52
口口口口 |①---|
口口①口 |②---|
口②口口 |③---|
口口③口 |----|
53
口口口口 |①---|
口口①口 |②---|
口②口口 |③---|
口口③口 |----|
54
口口口口 |①---|
口口口口 |----|
②口口口 |②---|
①口口口 |----|
55
②口口口 |①---|
①口口口 |----|
口口口口 |②---|
口口口口 |----|
56
口口口口 |①---|
口口①① |--②-|
口口②② |----|
口口③③ |③---|
57
口口口口 |----|
口口口口 |----|
口口口口 |----|
口口口口 |----|
58
口口口口 |①---|
①①口口 |--②-|
②②口口 |----|
③③口口 |③---|
59
口口口口 |----|
口口口口 |----|
口口口口 |----|
口口口口 |----|
60
口口口口 |①---|
口①①口 |--②-|
口②②口 |----|
口③③口 |③---|
61
口口口口 |----|
口口口口 |----|
口口口口 |----|
口口口口 |----|
62
口③③口 |①---|
口②①口 |----|
口口口口 |②---|
口口口口 |--③-|
63
口口口口 |----|
口口口口 |--①-|
口口口口 |----|
口①①口 |----|
64
④③②① |①---|
口口口口 |②---|
口口口口 |③---|
口口口口 |④---|
65
口口口口 |①---|
口口口口 |②---|
①②③④ |③---|
口口口口 |④---|
66
口口口口 |①---|
①①④④ |②---|
②②口口 |③---|
③③口口 |--④-|
67
口口口口 |--①-|
口口口口 |--②-|
口口①① |----|
口口②② |----|
68
④③②① |①---|
口口口口 |②---|
口口口口 |③---|
口口口口 |④---|
69
口口口口 |①---|
口口口口 |②---|
①②③④ |③---|
口口口口 |④---|
70
口口口口 |①---|
①①④④ |②---|
②②口口 |③---|
③③口口 |--④-|
71
口口口口 |--①-|
口口口口 |--②-|
口口①① |----|
口口②② |----|
72
④③②① |①---|
口口口口 |②---|
口口口口 |③---|
口口口口 |④---|
73
口口口口 |①---|
口口口口 |②---|
①②③④ |③---|
口口口口 |④---|
74
口口口口 |①---|
①①④④ |②---|
②②口口 |③---|
③③口口 |--④-|
75
口口口口 |--①-|
口口口口 |--②-|
口口①① |----|
口口②② |----|
76
口口口口 |①---|
④③②① |②---|
口口口口 |③---|
口口口口 |④---|
77
口口口口 |①---|
口口口口 |②---|
口口口口 |③---|
①②③④ |④---|
78
④口口④ |①---|
口①①口 |②---|
口②②口 |③---|
口③③口 |--④-|
79
口口口口 |--①-|
①③③① |--②-|
②口口② |--③-|
口④④口 |--④-|

不確定度: 0

最終更新:2017年08月16日 00:40