ぱんだしんけん1、2、3 ~ちえ!おっしょさんにはかなわないや!~
おひさまくらぶ

BASIC

Level: 3
BPM: 158
Notes: 236

1
口口口口 |----|
口口口口 |----|
口口口口 |----|
口口口口 |----|
2
口口口口 |①---|
口①①口 |----|
口口口口 |----|
口口口口 |----|
3
口口口口 |①---|
口①①口 |----|
口口口口 |----|
口口口口 |----|
4
口口口口 |①---|
口①①口 |----|
口②②口 |②---|
口口口口 |----|
5
③③③③ |①---|
②口口② |②---|
①口口① |③---|
口口口口 |----|
6
口口口口 |①---|
口①②口 |----|
口口口口 |②---|
口口口口 |----|
7
口口口口 |①---|
口口口口 |----|
口①②口 |②---|
口口口口 |----|
8
口口口口 |①---|
①口口② |----|
口口口口 |②---|
口口口口 |----|
9
口口口口 |①---|
口口口口 |----|
①口口② |②---|
口口口口 |----|
10
口口口口 |①---|
口①②口 |----|
口口口口 |②---|
口口口口 |----|
11
口口口口 |①---|
口口口口 |----|
口①②口 |②---|
口口口口 |----|
12
口口口口 |①---|
①口口② |----|
口口口口 |②---|
口口口口 |----|
13
口口口口 |①---|
口口口口 |----|
①口口② |②---|
口口口口 |----|
14
①口口口 |①---|
②口口口 |----|
口口口口 |②---|
口口口口 |----|
15
口口口口 |①---|
口口口口 |②---|
③②①口 |③---|
口口口口 |----|
16
口口口① |①---|
口口口② |----|
口口口口 |②---|
口口口口 |----|
17
口口口口 |①---|
口④④口 |②---|
口①②③ |③-④-|
口口口口 |----|
18
口口口① |①---|
口口口② |----|
口口口口 |②---|
口口口口 |----|
19
口口口口 |①---|
口口口④ |②---|
口①②③ |③---|
口口口口 |④---|
20
口①②口 |①---|
口③④口 |②---|
口口口口 |③---|
口口口口 |④---|
21
口口口口 |①---|
口口口口 |②---|
口①②口 |③---|
口③④口 |④---|
22
口口口口 |①---|
口口口口 |----|
①口口① |----|
口口口口 |----|
23
口口口口 |①---|
①口口① |----|
口口口口 |----|
口口口口 |----|
24
口口 |①---|
口口 |----|
口口
口口口口

口口
口口口口
口口口口 |----|
口口口口 |②---|
25
口口口口 |----|
口口口口 |----|
口口口口 |----|
口口口口 |----|
26
口口口口 |①---|
口①①口 |----|
口口口口 |----|
口口口口 |----|
27
口口口口 |①---|
口口口口 |----|
口①①口 |----|
口口口口 |----|
28
口口口口 |①---|
口 |----|



口口口口
口口口口
口口口口 |--②-|
口 |----|
29
口口口口 |①---|
①①①① |----|
口口口口 |----|
口口口口 |----|
30
口口口口 |①---|
口①①口 |----|
口口口口 |----|
口口口口 |----|
31
②口口② |①---|
①口口① |----|
口口口口 |②---|
口口口口 |----|
32
口①②口 |①-②-|
口③④口 |③-④-|
口⑤⑥口 |⑤-⑥-|
口⑦⑧口 |⑦-⑧-|
33
口口口口 |①-②-|
②口口④ |--③-|
①口口③ |④---|
口口口口 |----|
34
口口口口 |①---|
口口口口 |②---|
①②③④ |③---|
口口口口 |④---|
35
口口口口 |①---|
口口口口 |②---|
口口口口 |③---|
④③②① |④---|
36
口口口口 |①---|
口口口口 |②---|
①②③④ |③---|
口口口口 |④---|
37
口口口口 |①---|
①口口① |----|
②口口② |②---|
口口口口 |----|
38
①①①① |①---|
口口口口 |----|
口口口口 |----|
口口口口 |----|
39
口口口口 |①---|
①①①① |----|
口口口口 |----|
口口口口 |----|
40
口口口口 |①---|
口口口口 |----|
①①①① |----|
口口口口 |----|
41
口口口口 |①---|
口口口口 |----|
口口口口 |----|
①①①① |----|
42
①口口② |①---|
③口口④ |②---|
口口口口 |③---|
口口口口 |④---|
43
口口口口 |①---|
口口口口 |②---|
①口口② |③---|
③口口④ |④---|
44
口口口口 |①---|
口口口口 |②---|
口③④口 |③---|
口①②口 |④---|
45
③口口③ |①---|
口①②口 |②---|
口口口口 |③---|
口口口口 |----|
46
口①②口 |①---|
口③④口 |②---|
口口口口 |③---|
口口口口 |④---|
47
口口口口 |①---|
口口口口 |②---|
口①②口 |③---|
口③④口 |④---|
48
口口口口 |①---|
口口口口 |②---|
③口口④ |③---|
①口口② |④---|
49
口 |①---|
② |②---|
口 |③---|
口口口口 |----|
50
口口口口 |①---|
口口口口 |----|
口 |----|
口口口口 |----|
51
口口口口 |①---|
口口口口 |----|
口口口口 |----|
口①①口 |----|
52
口口口口 |①---|
①②③④ |②---|
口口口口 |③---|
口口口口 |④---|
53
口口口口 |①---|
口口口口 |②---|
④③②① |③---|
口口口口 |④---|
54
口口口口 |①---|
口①②口 |----|
口口口口 |②---|
口口口口 |----|
55
口口口口 |①---|
口口口口 |----|
口①②口 |②---|
口口口口 |----|
56
口口口口 |①---|
①②③④ |②---|
口口口口 |③---|
口口口口 |④---|
57
①口口① |①---|
②口口② |----|
口口口口 |②---|
口口口口 |----|
58
口口口口 |①---|
口口口口 |----|
①①①① |----|
口口口口 |----|
59
口口口口 |①---|
①②③④ |②---|
口口口口 |③---|
口口口口 |④---|
60
口口口口 |①---|
口口口口 |②---|
④③②① |③---|
口口口口 |④---|
61
口口口口 |①---|
口口口口 |②---|
口口口口 |③---|
①②③④ |④---|
62
口口口口 |①---|
口口口口 |②---|
④③②① |③---|
口口口口 |④---|
63
口口口口 |①---|
①②③④ |②---|
口口口口 |③---|
口口口口 |④---|
64
④③②① |①---|
口口口口 |②---|
口口口口 |③---|
口口口口 |④---|
65
口③③口 |①---|
①②口口 |②---|
口④④口 |③---|
口口口口 |④---|
66
口口口口 |①---|
①①①① |----|
口口口口 |----|
口口口口 |----|
67
口口口口 |①---|
口口口口 |----|
口①①口 |----|
口口口口 |----|
68
口口口口 |①---|
口口口口 |----|
口①①口 |----|
口口口口 |----|
69
③②②③ |①---|
口①①口 |②---|
口口口口 |③---|
口口口口 |----|
70
口 |①---|
口 |----|
口 |----|
口口口口 |----|
71
口口口口 |----|
口口口口 |----|
口口口口 |----|
口口口口 |----|
72
口口口口 |①---|
口口口口 |----|
口 |----|
口口口口 |----|

不確定度: 0

最終更新:2017年08月15日 23:41