ぱんだしんけん1、2、3 ~ちえ!おっしょさんにはかなわないや!~
おひさまくらぶ

ADVANCED

Level: 6
BPM: 158
Notes: 417

1
口口口口 |----|
口口口口 |----|
口口口口 |----|
口口口口 |----|
2
口口口口 |①---|
口①①口 |----|
口②②口 |----|
口口口口 |--②-|
3
口口口口 |①---|
口①①口 |----|
口②②口 |----|
口口口口 |--②-|
4
口口口口 |①---|
③①①③ |--②-|
②口口② |③---|
口口口口 |----|
5
口①①口 |①---|
③②②③ |②---|
口口口口 |③---|
口口口口 |----|
6
口口口口 |①---|
口口口口 |②---|
①②④③ |③---|
口口口口 |④---|
7
口口口口 |①---|
①②④③ |②---|
口口口口 |③---|
口口口口 |④---|
8
口口口口 |①---|
口口口口 |②---|
②①③④ |③---|
口口口口 |④---|
9
口口口口 |①---|
②①③④ |②---|
口口口口 |③---|
口口口口 |④---|
10
口口口口 |①---|
口口口口 |②---|
①②④③ |③---|
口口口口 |④---|
11
口口口口 |①---|
①②④③ |②---|
口口口口 |③---|
口口口口 |④---|
12
口口口口 |①---|
口口口口 |②---|
②①③④ |③---|
口口口口 |④---|
13
口口口口 |①---|
②①③④ |②---|
口口口口 |③---|
口口口口 |④---|
14
①①口口 |①---|
口③口口 |--②-|
②②④口 |--③-|
口⑤口口 |④-⑤-|
15
①口口① |①---|
②口口② |②---|
口③③口 |③---|
口口口口 |----|
16
口口①① |①---|
口口③口 |--②-|
口④②② |--③-|
口口⑤口 |④-⑤-|
17
①④④① |①---|
②口口② |②---|
口③③口 |③-④-|
口口口口 |----|
18
①②口① |①---|
口口③口 |--②-|
口④口⑥ |③-④-|
口口⑤口 |⑤-⑥-|
19
⑦⑦口口 |①-②-|
①②③④ |③-④-|
口⑤⑥口 |⑤-⑥-|
口口口口 |⑦---|
20
③④①① |①---|
④③口口 |--②-|
口口②② |③---|
口口口口 |④---|
21
口口口口 |①-②-|
口口口口 |--③-|
口④②口 |④---|
口③①口 |----|
22
③②①口 |①---|
③②①口 |--②-|
口口口口 |----|
口口口口 |③---|
23
口口口口 |①---|
口口口口 |--②-|
①②③口 |----|
①②③口 |③---|
24
口口 |①---|
口口 |----|
口口
口口口口

口口口口
口口口口
口口 |----|
口口口口 |②---|
25
口口口口 |----|
口口口口 |----|
口口口口 |----|
口口口口 |----|
26
口①②③ |①---|
口①②③ |--②-|
口口口口 |----|
口口口口 |③---|
27
口口口口 |①---|
口口口口 |--②-|
口③②① |----|
口③②① |③---|
28
口口 |①---|
口口 |----|
口口
口口口口

口口口口
口口口口
口口 |--②-|
口口口口 |----|
29
口②①口 |①-②-|
口口④口 |----|
口③口口 |----|
口①②口 |③-④-|
30
口口口① |①---|
口③口口 |----|
口口②口 |--②-|
口口口口 |③---|
31
口口①① |①---|
口口口口 |--②-|
口口②口 |③---|
口③口口 |----|
32
口口口口 |①-②-|
①口口② |③-④-|
③⑦⑧④ |⑤-⑥-|
口⑤⑥口 |⑦-⑧-|
33
口②④口 |①-②-|
口口口口 |--③-|
①口口③ |④---|
口口口口 |----|
34
③口口① |①---|
①口口③ |②---|
口②②口 |③---|
口④④口 |④---|
35
②口①口 |①---|
口①口② |②---|
口口口口 |③---|
口③③口 |----|
36
口①口口 |①---|
①②③口 |②-③-|
口④⑤口 |④-⑤-|
口⑥⑦口 |⑥-⑦-|
37
③口①④ |①---|
口口口① |--②-|
②④③口 |③---|
口口口口 |④---|
38
口口口口 |①---|
①①①① |----|
口②②口 |②---|
口口口口 |----|
39
①①口口 |①---|
①口口口 |----|
②②口口 |②---|
②②口口 |----|
40
口口①口 |①---|
②②①① |----|
②②①① |②---|
②②口口 |----|
41
口①①口 |--①-|
口口①口 |----|
口口①口 |----|
口口口口 |----|
42
①③①③ |①---|
口口口口 |②---|
口②④口 |③---|
口口口口 |④---|
43
口口口口 |①---|
①③①③ |②---|
口口口口 |③---|
口②④口 |④---|
44
口口口① |①---|
③②③口 |②---|
口口口① |③---|
口④口口 |④---|
45
①口口口 |①---|
口口②口 |②---|
①口口口 |③---|
口③③口 |----|
46
②口②口 |①---|
口④口④ |②---|
口①口① |③---|
③口③口 |④---|
47
①③①③ |①---|
口口口口 |②---|
②口②口 |③---|
口④口④ |④---|
48
④口口② |①---|
口③①口 |②---|
④口口② |③---|
口③①口 |④---|
49
口口口口 |①---|
①口口① |②---|
口口口口
口②②口

口口
口口
口口 |③---|
口口口口

口口
口口口口
口口口口
口口口口 |---④|
50
口口口口 |①---|
口①①口 |----|
口②③口 |--②-|
口口口口 |③---|
51
①①口口 |①---|
口口口口 |--②-|
口②③口 |③---|
口口口口 |----|
52
口②⑦口 |①-②-|
口⑧①口 |③-④-|
口③⑥口 |⑤-⑥-|
口⑤④口 |⑦-⑧-|
53
口②口④ |①-②-|
①口③口 |③-④-|
口⑤⑤口 |⑤---|
口口口口 |----|
54
①口③口 |①---|
口③口① |②---|
口②②口 |③---|
口④④口 |④---|
55
①口口① |①---|
②口口② |②---|
口③③口 |③---|
口口口口 |----|
56
①④⑤① |①---|
④口口⑤ |②-③-|
口②③口 |④---|
口口口口 |⑤---|
57
口⑥口口 |①---|
口④⑤口 |--②-|
口②③口 |③-④-|
口①①口 |⑤-⑥-|
58
①口口① |①---|
③口口③ |②---|
②口口② |③---|
④口口④ |④---|
59
口口口口 |①-②-|
口口口口 |③-④-|
口③④口
口①②口

口口口口
⑤口口⑤
口口口口 |⑤---|
口⑥⑦口 |⑥-⑦-|
60
④②①③ |①---|
③①②④ |②---|
口口口口 |③---|
口口口口 |④---|
61
口口口口 |①-②-|
口③④口 |③-④-|
口①②口
口口口口

⑤口口⑤
口口口口
口⑥⑦口 |⑤---|
口口口口 |⑥-⑦-|
62
③口口③ |①---|
①口口① |②---|
④口口④ |③---|
②口口② |④---|
63
口口口口 |①-②-|
口口口口 |③-④-|
口③④口
口①②口

口口口口
⑤口口⑤
口口口口 |⑤---|
口⑥⑦口 |⑥-⑦-|
64
④②①③ |①---|
③①②④ |②---|
口口口口 |③---|
口口口口 |④---|
65
口口口口 |①-②-|
⑤⑥⑧⑦ |③-④-|
口③④口 |⑤⑥-⑦|
口①②口 |⑧---|
66
口②①口 |①-②-|
口口口口 |----|
口③③口 |----|
口①②口 |--③-|
67
口口口口 |①---|
口①①口 |----|
口②②口 |----|
口口口口 |--②-|
68
口口口口 |①---|
③①①③ |--②-|
②口口② |③---|
口口口口 |----|
69
口①①口 |①---|
③②②③ |②---|
口口口口 |③---|
口口口口 |----|
70
口口 |--①-|
口 |②---|
口 |----|
口口口 |----|
71
口口口口 |----|
口口口口 |----|
口口口口 |----|
口口口口 |----|
72
口口口口 |①-②-|
口口口口 |----|
口口 |----|
口口口 |----|

不確定度: 0

最終更新:2017年08月15日 23:41