ケンぱ!ケンぱ!拳拳ぱん打!
ぱんぱんぱん打

BASIC

Level: 3
BPM: 200
Notes: 280

1
口口口口 |----|
口口口口 |----|
口口口口 |----|
口口口口 |----|
2
口①①口 |①---|
口①①口 |----|
口口口口 |----|
口口口口 |----|
3
口口口口 |①---|
口②①口 |----|
口口口口 |②---|
口口口口 |----|
4
口②①口 |①---|
口口口口 |----|
口口口口 |②---|
口口口口 |----|
5
口口口口 |①---|
口②①口 |----|
口口口口 |②---|
口口口口 |----|
6
①②②① |①---|
口口口口 |----|
口口口口 |②---|
口口口口 |----|
7
口口口口 |①---|
口口①口 |----|
口口②口 |②---|
口口口口 |----|
8
口口口口 |①---|
口口口口 |----|
口②口口 |②---|
口口①口 |----|
9
口口口口 |①---|
口①口口 |----|
口②口口 |②---|
口口口口 |----|
10
口口口口 |①---|
口口口口 |----|
口口②口 |②---|
口①口口 |----|
11
口口口口 |①---|
口口①口 |----|
口口②口 |②---|
口口口口 |----|
12
口口口口 |①---|
口口口口 |----|
口②口口 |②---|
口口①口 |----|
13
口口口口 |①---|
口②①口 |----|
口口口口 |②---|
口口口口 |----|
14
口口口口 |①---|
口口口口 |----|
口②①口 |②---|
口口口口 |----|
15
口口口口 |①---|
口口口① |----|
口口口② |②---|
口口口口 |----|
16
口口口口 |①---|
口口口口 |----|
口②口口 |②---|
口口口① |----|
17
口口口口 |①---|
①口口口 |----|
②口口口 |②---|
口口口口 |----|
18
口口口口 |①---|
口口口口 |----|
口口②口 |②---|
①口口口 |----|
19
口口口口 |①---|
口口口① |----|
口口口② |②---|
口口口口 |----|
20
口口口口 |①---|
口口口口 |----|
口②口口 |②---|
口口口① |----|
21
口口口口 |①---|
①①①① |----|
口口口口 |----|
口口口口 |----|
22
②口口② |①---|
口口口口 |----|
口①①口 |②---|
口口口口 |----|
23
口口口口 |①---|
③②①口 |②---|
口口口口 |③---|
口口口口 |----|
24
口口口口 |①---|
口口口口 |②---|
口①②③ |③---|
口口口口 |----|
25
口口口① |①---|
口口②口 |②---|
口③口口 |③---|
④口口口 |④---|
26
口口口口 |①---|
②口口② |----|
口口口口 |②---|
口①①口 |----|
27
口口口口 |①---|
口口口口 |②---|
③②①口 |③---|
口口口口 |----|
28
①口口口 |①---|
口②口口 |②---|
口口③口 |③---|
口口口④ |④---|
29
口口口口 |①---|
口口口口 |----|
口②②口 |②---|
口①①口 |----|
30
②②②② |①---|
口①①口 |----|
口口口口 |②---|
口口口口 |----|
31
口口口口 |①---|
口口①口 |②---|
④口②口 |③---|
口口③口 |④---|
32
口口口口 |①---|
口①口口 |②---|
口②口④ |③---|
口③口口 |④---|
33
口口口口 |①---|
口口①口 |②---|
④口②口 |③---|
口口③口 |④---|
34
口口口口 |①---|
口①口口 |②---|
口②口口 |③---|
口③口口 |----|
35
口口口口 |①---|
口口①口 |②---|
④口②口 |③---|
口口③口 |④---|
36
口口口口 |①---|
口①口口 |②---|
口②口④ |③---|
口③口口 |④---|
37
|①---|
口口口口 |----|
口口口口 |----|
口口口口 |----|
38
口口 |----|
口口口口 |----|
口口口口 |①---|
口口口口 |----|
39
口口口口 |①---|
口口口口 |②---|
④③②① |③---|
口口口口 |④---|
40
口口口口 |①---|
口口①口 |②---|
口口②口 |③---|
口口③口 |----|
41
口口口口 |①---|
①②③④ |②---|
口口口口 |③---|
口口口口 |④---|
42
口③口口 |①---|
口②口口 |②---|
口①口口 |③---|
口口口口 |----|
43
口口口口 |①---|
②②①① |----|
口口口口 |②---|
口口口口 |----|
44
口口口口 |①---|
口口口口 |----|
②②①① |②---|
口口口口 |----|
45
|①---|
口口口口 |----|
口口口口 |----|
口口口口 |----|
46
口口 |----|
口口口口 |----|
口口口口 |①---|
口口口口 |----|
47
口口口口 |①---|
口口口口 |②---|
④③②① |③---|
口口口口 |④---|
48
口口口口 |①---|
口口①口 |②---|
口口②口 |③---|
口口③口 |----|
49
口口口口 |①---|
①②③④ |②---|
口口口口 |③---|
口口口口 |④---|
50
口③口口 |①---|
口②口口 |②---|
口①口口 |③---|
口口口口 |----|
51
口口口① |①---|
口口②口 |②---|
口③口口 |③---|
④口口口 |④---|
52
口①①口 |①---|
口②②口 |②---|
口③③口 |③---|
口口口口 |----|
53
②口口② |①---|
口口口口 |----|
①口口① |②---|
口口口口 |----|
54
口口口口 |①---|
口①①口 |②---|
口②②口 |③---|
口③③口 |----|
55
口口口口 |①---|
口②①口 |----|
口口口口 |②---|
口口口口 |----|
56
口口口口 |①---|
口口口口 |----|
口②①口 |②---|
口口口口 |----|
57
口口口口 |①---|
②口口① |----|
口口口口 |②---|
口口口口 |----|
58
口口口口 |①---|
口口口口 |----|
②口口① |②---|
口口口口 |----|
59
口口口口 |①---|
口②①口 |----|
口口口口 |②---|
口口口口 |----|
60
口口口口 |①---|
口口口口 |----|
口②①口 |②---|
口口口口 |----|
61
口①①口 |①---|
口①①口 |----|
口口口口 |----|
口口口口 |----|
62
口口口口 |----|
口口口口 |----|
口口口口 |①---|
口②①口 |②---|
63
口口口口 |①---|
口口口口 |②---|
④③②① |③---|
口口口口 |④---|
64
口口①口 |①---|
口口②口 |②---|
口口③口 |③---|
口口④口 |④---|
65
口口口口 |①---|
①②③④ |②---|
口口口口 |③---|
口口口口 |④---|
66
口④口口 |①---|
口③口口 |②---|
口②口口 |③---|
口①口口 |④---|
67
口口口口 |①---|
②②①① |----|
口口口口 |②---|
口口口口 |----|
68
口口口口 |①---|
口口口口 |----|
②②①① |②---|
口口口口 |----|
69
|①---|
口口口口 |----|
口口口口 |----|
口口口口 |----|
70
口口 |----|
口口口口 |----|
口口口口 |①---|
口口口口 |----|
71
口 |①---|
口 |----|
口口口口
口口口口

口口口口

口口口口 |②---|
口口口口 |----|
72
口口口口 |①---|
口口口口 |----|



口口口口
口口口口
口 |②---|
口口口口 |----|
73
口口口口 |①---|
①口口① |----|
口口口口 |②---|
②口口② |----|
74
口口口口 |①---|
|----|
口口口口
口口口口

口口口口
口口
口口口口 |②---|
口口口口 |----|
75
②口口② |①---|
口口口口 |----|
①口口① |②---|
口口口口 |----|
76
口口口口 |①---|
口①①口 |②---|
口②②口 |③---|
口③③口 |----|
77
②口口② |①---|
口口口口 |----|
①口口① |②---|
口口口口 |----|
78
口口口口 |①---|
口①①口 |②---|
口②②口 |③---|
口③③口 |----|
79
②口口② |①---|
口口口口 |----|
①口口① |②---|
口口口口 |----|
80
口口口口 |①---|
口①①口 |②---|
口②②口 |③---|
口③③口 |----|
81
②口口② |①---|
口口口口 |----|
①口口① |②---|
口口口口 |----|
82
口口口口 |①---|
口①①口 |②---|
口②②口 |③---|
口③③口 |----|
83
口口口口 |①---|
②口口① |----|
口口口口 |②---|
口口口口 |----|
84
口③③口 |①---|
口③③口 |----|
口①①口 |②---|
口②②口 |③---|

不確定度: 0

最終更新:2017年08月15日 23:38