ケンぱ!ケンぱ!拳拳ぱん打!
ぱんぱんぱん打

ADVANCED

Level: 6
BPM: 200
Notes: 459

1
口口口口 |----|
口口口口 |----|
口口口口 |----|
口口口口 |----|
2
口①①口 |①---|
口①①口 |----|
口口口口 |----|
口口口口 |----|
3
口④口口 |①---|
口口③口 |②---|
②口口① |③---|
口口口口 |④---|
4
口口①口 |①---|
口②口口 |②---|
口口③口 |③---|
口口口口 |----|
5
口口口口 |①---|
口④①口 |②---|
口②口口 |③---|
口口③口 |④---|
6
②口口② |①---|
口口①口 |----|
口口口口 |②---|
口口口口 |----|
7
口口口口 |①---|
口②①口 |②---|
口④③口 |③---|
口口口口 |④---|
8
口口口口 |①---|
口口口口 |②---|
③口口③ |③---|
口②①口 |----|
9
口口口口 |①---|
口口口口 |②---|
口④③口 |③---|
口②①口 |④---|
10
③口口③ |①---|
口②①口 |②---|
口口口口 |③---|
口口口口 |----|
11
口口口口 |①---|
口②①口 |②---|
口④③口 |③---|
口口口口 |④---|
12
口口口口 |①---|
口口口口 |②---|
③口口③ |③---|
口②①口 |----|
13
口②①口 |①-②-|
口④③⑥ |③-④-|
口口⑤口 |⑤---|
口口口口 |⑥---|
14
③③口口 |①---|
②②口口 |②---|
①①口口 |③---|
口口口口 |----|
15
口口口口 |①---|
口口口口 |②---|
口②①口 |③---|
口④③口 |④---|
16
口口口③ |①---|
口口口② |②---|
口口口① |③---|
口口口口 |----|
17
口口①口 |①---|
口②口口 |②---|
口口③口 |③---|
口④口口 |④---|
18
③口口③ |①---|
②口口② |②---|
①口口① |③---|
口口口口 |----|
19
口口口口 |①---|
口口口口 |②---|
口②①口 |③---|
口④③口 |④---|
20
口口口① |①---|
口口口② |②---|
口口口③ |③---|
口口口④ |④---|
21
口口口口 |①-②-|
|----|
口①①口
口口口口

口口口口
口口
口口口口 |----|
口口口口 |③---|
22
③口口③ |①---|
口①①口 |②---|
口②②口 |③---|
口口口口 |----|
23
口口口口 |①---|
口口口① |②---|
口④④② |③---|
口口口③ |④---|
24
口口口口 |①---|
①口口口 |②---|
②④④口 |③---|
③口口口 |④---|
25
④口口① |①---|
口口口口 |②---|
②口口③ |③---|
口口口口 |④---|
26
口口口口 |①-②-|
口②①口 |③-④-|
口④③口 |⑤---|
口口⑤口 |----|
27
口口口口 |①---|
口口口① |②---|
口④④② |③---|
口口口③ |④---|
28
①口口④ |①---|
口口口口 |②---|
③口口② |③---|
口口口口 |④---|
29
口口口口 |①---|
②口口② |----|
②口口② |②---|
①①①① |----|
30
口口口口 |①-②-|
口②①口 |③-④-|
口④③口 |⑤---|
口口⑤口 |----|
31
口口口口 |①-②-|
②口口① |③-④-|
④⑥⑥③ |⑤---|
口口口⑤ |⑥---|
32
口口口口 |①-②-|
②口口① |③-④-|
④⑥⑥③ |⑤---|
口口口⑤ |⑥---|
33
口口口口 |①-②-|
②口口① |③-④-|
④口⑥③ |⑤---|
口口口⑤ |⑥---|
34
口①口口 |①---|
口②口口 |②---|
口③口口 |③---|
口口口口 |----|
35
口口口口 |①-②-|
②口口① |③-④-|
④⑥⑥③ |⑤---|
口口口⑤ |⑥---|
36
口口口口 |①-②-|
②口口① |③-④-|
④⑥⑥③ |⑤---|
口口口⑤ |⑥---|
37
|①-②-|
口①①口 |----|
口口口口 |----|
口口口口 |----|
38
口口 |----|
口口口口 |----|
口③②口 |①---|
口口口口 |②-③-|
39
口④⑤口 |①-②-|
①⑤④① |③---|
②口口② |④---|
③口口③ |⑤---|
40
口口口口 |①---|
②口口② |②---|
④③③④ |③---|
口①①口 |④---|
41
口②①口 |①-②-|
⑥④③⑥ |③-④-|
口口⑤口 |⑤---|
口口口口 |⑥---|
42
③③②② |①---|
口口口口 |②---|
口口口口 |③---|
口①①口 |----|
43
④④②② |①---|
口口口口 |②---|
③③①① |③---|
口口口口 |④---|
44
口口口口 |①---|
④④②② |②---|
口口口口 |③---|
③③①① |④---|
45
|①-②-|
口口口口 |----|
口①①口 |----|
口口口口 |----|
46
口口 |----|
口口口口 |----|
口③②口 |①---|
口口口口 |②-③-|
47
口④⑤口 |①-②-|
①⑤④① |③---|
②口口② |④---|
③口口③ |⑤---|
48
③口口③ |①---|
②口口② |②---|
口①①口 |③---|
口④④口 |④---|
49
口②①口 |①-②-|
⑥④③⑥ |③-④-|
口口⑤口 |⑤---|
口口口口 |⑥---|
50
③③②② |①---|
口口口口 |②---|
口口口口 |③---|
口①①口 |----|
51
口口口口 |①---|
口口口口 |②---|
②口口① |③---|
④口口③ |④---|
52
口口口口 |①---|
口①①口 |②---|
口②②口 |③---|
口③③口 |----|
53
⑥口口③ |①-②-|
⑤口口② |③---|
④口口① |④-⑤-|
口口口口 |⑥---|
54
口口口口 |①---|
口①①口 |②---|
口②②口 |③---|
口③③口 |----|
55
口口口口 |①---|
口②①口 |②---|
口④③口 |③---|
口口口口 |④---|
56
口口口口 |①---|
口口口口 |②---|
③口口③ |③---|
口②①口 |----|
57
口口口口 |①---|
口口口口 |②---|
口④③口 |③---|
口②①口 |④---|
58
③口口③ |①---|
口②①口 |②---|
口口口口 |③---|
口口口口 |----|
59
口口口口 |①---|
口②①口 |②---|
口④③口 |③---|
口口口口 |④---|
60
口口口口 |①---|
口口口口 |②---|
③口口③ |③---|
口②①口 |----|
61
口①①口 |①---|
口①①口 |----|
口口口口 |----|
口口口口 |----|
62
口①②口 |----|
口口口口 |----|
口口口口 |①---|
口②①口 |②---|
63
口④⑤口 |①-②-|
①⑤④① |③---|
②口口② |④---|
③口口③ |⑤---|
64
口口口口 |①---|
②口口② |②---|
④③③④ |③---|
口①①口 |④---|
65
口②①口 |①-②-|
⑥④③⑥ |③-④-|
口口⑤口 |⑤---|
口口口口 |⑥---|
66
③③②② |①---|
口口口口 |②---|
口口口口 |③---|
口①①口 |----|
67
④④②② |①---|
口口口口 |②---|
③③①① |③---|
口口口口 |④---|
68
口口口口 |①---|
④④②② |②---|
口口口口 |③---|
③③①① |④---|
69
|①-②-|
口口口口 |----|
口①①口 |----|
口口口口 |----|
70
口口 |----|
口口口口 |----|
口口口口 |①---|
口②②口 |②---|
71
口口口口 |①---|
|----|
口口口口
口口口口

口口口口
口口
口③③口 |②---|
口口口口 |③---|
72
|①---|
口口口口 |----|
口口口口
口口口口

口口
口口口口
口③③口 |②---|
口口口口 |③---|
73
口⑤④口 |①-②-|
①④⑤① |③---|
②口口② |④---|
③口口③ |⑤---|
74
|①-②-|
口口口口 |----|
口口口口
口①①口

口口
口口口口
口口口口 |----|
口口口口 |③---|
75
口口口口 |①---|
口口口口 |②---|
②口口① |③---|
④口口③ |④---|
76
口口口口 |①---|
口①①口 |②---|
口②②口 |③---|
口③③口 |----|
77
⑥口口③ |①-②-|
⑤口口② |③---|
④口口① |④-⑤-|
口口口口 |⑥---|
78
口口口口 |①---|
口①①口 |②---|
口②②口 |③---|
口③③口 |----|
79
⑥口口③ |①-②-|
⑤口口② |③---|
④口口① |④-⑤-|
口口口口 |⑥---|
80
口口口口 |①---|
口①①口 |②---|
口②②口 |③---|
口③③口 |----|
81
⑥口口③ |①-②-|
⑤口口② |③---|
④口口① |④-⑤-|
口口口口 |⑥---|
82
口口口口 |①---|
口①①口 |②---|
口②②口 |③---|
口③③口 |----|
83
⑥口口③ |①-②-|
⑤口口② |③---|
④口口① |④-⑤-|
口口口口 |⑥---|
84
口④④口 |①---|
口④④口 |②---|
口②①口 |③---|
口口③口 |④---|

不確定度: 0

最終更新:2017年08月15日 23:38