月風魔伝 ~ビーストメドレー~
Akhuta

ADVANCED

Level: 7
BPM: 170
Notes: 533

1
口口口口 |----|
口口口口 |----|
口口口口 |----|
口口口口 |----|
2
口口口口 |①---|
口口①① |----|
②②口口 |②---|
口口口口 |----|
3
口口口口 |①---|
①①口口 |----|
口口②② |②---|
口口口口 |----|
4
口口口口 |①---|
口口①① |----|
②②口口 |②---|
口口口口 |----|
5
口口口口 |①---|
①①口口 |----|
口口②② |②---|
口口口口 |----|
6
口口①① |①---|
口口口口 |----|
口口口口 |②---|
②②口口 |----|
7
①①口口 |①---|
口口口口 |----|
口口口口 |②---|
口口②② |----|
8
口口①① |①---|
口口口口 |----|
口口口口 |②---|
②②口口 |----|
9
①①口口 |①---|
口口口口 |----|
口口口口 |②---|
口口②② |----|
10
口口口口 |①---|
口①①口 |----|
口①①口 |----|
口口口口 |----|
11
口口口口 |①-②-|
口口口口 |③-④-|
⑦⑧⑥⑤ |⑤-⑥-|
③④②① |⑦-⑧-|
12
口⑧⑥口 |①-②-|
③④②① |③-④-|
口⑦⑤口 |⑤-⑥-|
口口口口 |⑦-⑧-|
13
口口口口 |①-②-|
口口口口 |③-④-|
⑦⑧⑥⑤ |⑤-⑥-|
③④②① |⑦-⑧-|
14
口⑧⑥口 |①-②-|
③④②① |③-④-|
口⑦⑤口 |⑤-⑥-|
口口口口 |⑦-⑧-|
15
④口口① |①-②-|
⑤⑦⑦② |③-④-|
⑥⑧⑧③ |⑤-⑥-|
口口口口 |⑦-⑧-|
16
口④④口 |①---|
②口口② |②---|
③口口③ |③---|
口①①口 |④---|
17
口口 |①---|
口口 |----|
口口
口口口口

口口
口口②口
口③口口 |②---|
口口口口 |③---|
18
口口口口 |①---|
③④②口 |--②-|
⑤⑥口口 |③-④-|
口口①口 |⑤-⑥-|
19
②口口口 |①-②-|
口③⑤④ |--③-|
口口⑦⑥ |④-⑤-|
口口①口 |⑥-⑦-|
20
口口口② |①-②-|
④⑤③口 |--③-|
⑥⑦口口 |④-⑤-|
口①口口 |⑥-⑦-|
21
②口口口 |①-②-|
口③⑤④ |--③-|
口口⑦⑥ |④-⑤-|
口口①口 |⑥-⑦-|
22
口口口② |①-②-|
④⑤③口 |--③-|
⑥⑦口口 |④-⑤-|
口①口口 |⑥-⑦-|
23
③口口③ |①---|
②口口② |②---|
口口口口 |③---|
口口①口 |----|
24
口②①口 |①-②-|
口④③口 |③-④-|
口⑥⑤口 |⑤-⑥-|
口⑧⑦口 |⑦-⑧-|
25
口口 |①---|
口口 |----|
口口
口口口口

口口
口口②口
口③口口 |②---|
口口口口 |③---|
26
口口口口 |①---|
③④②口 |--②-|
⑤⑥口口 |③-④-|
口口①口 |⑤-⑥-|
27
②口口口 |①-②-|
口③⑤④ |--③-|
口口⑦⑥ |④-⑤-|
口口①口 |⑥-⑦-|
28
口口口② |①-②-|
④⑤③口 |--③-|
⑥⑦口口 |④-⑤-|
口①口口 |⑥-⑦-|
29
②口口口 |①-②-|
口③⑤④ |--③-|
口口⑦⑥ |④-⑤-|
口口①口 |⑥-⑦-|
30
口口口② |①-②-|
④⑤③口 |--③-|
⑥⑦口口 |④-⑤-|
口①口口 |⑥-⑦-|
31
③口口③ |①---|
②口口② |②---|
口口口口 |③---|
口口①口 |----|
32
口口口口 |①-②-|
⑤②①⑤ |③-④-|
口④③口 |⑤---|
口⑥⑥口 |⑥---|
33
①①①① |①---|
口口口口 |--②-|
口③②口 |③---|
口④④口 |④---|
34
口口口口 |①---|
②口口② |②---|
①口口① |----|
③口口③ |③---|
35
①口口① |①---|
口④③口 |②---|
口口⑤口 |③-④-|
口②②口 |⑤---|
36
口口口口 |①---|
②口口② |②---|
口⑤④③ |--③-|
口①①口 |④-⑤-|
37
口口口② |①---|
口口⑦③ |②-③-|
①口⑥④ |④-⑤-|
口口⑤口 |⑥-⑦-|
38
①口口① |①---|
②④④② |②---|
③口口③ |③-④-|
口口口口 |----|
39
口口口口 |①---|
口②口口 |----|
口口③口 |②---|
口①①口 |③---|
40
口口口口 |①---|
口口口口 |----|
口②②口 |②---|
口①口口 |----|
41
口口口口 |①---|
①④口① |--②-|
口③②口 |③---|
口口口口 |④---|
42
口口口口 |①---|
口口④口 |--②-|
口③②口 |③---|
口①口口 |--④-|
43
口口口口 |①---|
口①④口 |--②-|
口②③口 |③---|
口口口口 |④---|
44
口口口口 |①---|
口口口口 |--②-|
口②③口 |③---|
口口①口 |----|
45
③口口③ |①--②|
口②②口 |--③-|
①④④① |----|
口口口口 |④---|
46
口口口口 |①---|
口③②口 |----|
口口口口 |②-③-|
口①①口 |----|
47
口口口口 |①---|
口口口口 |----|
口①口口 |②---|
口口②口 |----|
48
口口口口 |①---|
口口①口 |----|
口②口口 |②---|
口口口口 |----|
49
口口口口 |①---|
口③②口 |----|
口⑤④口 |②-③-|
口口①口 |④-⑤-|
50
口口口口 |①---|
口③②口 |----|
口口口口 |②-③-|
口口①口 |----|
51
口口口口 |①---|
口口口口 |----|
口①口口 |②---|
口口②口 |----|
52
口口口口 |①---|
口口①口 |----|
口②②口 |②---|
口口口口 |----|
53
口口口口 |①---|
①①①① |----|
口口口口 |----|
口口口口 |----|
54
口口①⑦ |①---②-|
口②口⑥ |--③---|
口口③⑤ |④-⑤---|
口④口口 |⑥---⑦-|
55
⑦①口口 |①---②-|
⑥口②口 |--③---|
⑤③口口 |④-⑤---|
口口④口 |⑥---⑦-|
56
口口①⑦ |①---②-|
口②口⑥ |--③---|
口口③⑤ |④-⑤---|
口④口口 |⑥---⑦-|
57
⑦①口口 |①---②-|
⑥口②口 |--③---|
⑤③口口 |④-⑤---|
口口④口 |⑥---⑦-|
58
口口①⑦ |①---②-|
口②口⑥ |--③---|
口口③⑤ |④-⑤---|
口④口口 |⑥---⑦-|
59
⑦①口口 |①---②-|
⑥口②口 |--③---|
⑤③口口 |④-⑤---|
口口④口 |⑥---⑦-|
60
口口①⑦ |①---②-|
口②口⑥ |--③---|
口口③⑤ |④-⑤---|
口④口口 |⑥---⑦-|
61
⑦①口口 |①---②-|
⑥口②口 |--③---|
⑤③口口 |④-⑤---|
口口④口 |⑥---⑦-|
62
口口口口 |①---|
口①①口 |----|
口口口口 |----|
口口口口 |----|
63
口口⑦① |①---②-|
②口⑥口 |--③---|
口口⑤③ |④-⑤---|
④口口口 |⑥---⑦-|
64
①⑦口口 |①---②-|
口⑥口② |--③---|
③⑤口口 |④-⑤---|
口口口④ |⑥---⑦-|
65
口口⑦① |①---②-|
②口⑥口 |--③---|
口口⑤③ |④-⑤---|
④口口口 |⑥---⑦-|
66
①⑦口口 |①---②-|
口⑥口② |--③---|
③⑤口口 |④-⑤---|
口口口④ |⑥---⑦-|
67
口⑦⑦① |①---②-|
②⑥⑥口 |--③---|
口⑤⑤③ |④-⑤---|
④口口口 |⑥---⑦-|
68
①⑦⑦口 |①---②-|
口⑥⑥② |--③---|
③⑤⑤口 |④-⑤---|
口口口④ |⑥---⑦-|
69
⑤口口① |①---②-|
②口口⑥ |--③---|
口口口③ |④---⑤-|
④口口口 |--⑥---|
70
口口口口 |①---|
口②②口 |②---|
①口口口 |----|
口口口口 |----|
71
口口口口 |①---|
口口口口 |----|
①①①① |----|
口口口口 |----|
72
⑧口口⑦ |①-②-|
⑥口口⑤ |③-④-|
口④③口 |⑤-⑥-|
口②①口 |⑦-⑧-|
73
口②口口 |①-②-|
口口④口 |③-④-|
①口口①
③口口口

口口⑦⑥
口口口口
口口口⑧ |⑤-⑥-|
口⑤口口 |⑦-⑧-|
74
口口口口 |①-②-|
④口口③ |③-④-|
口②口口
口口口①

口⑨⑤口
口⑩⑥口
口⑪⑦口 |⑤⑥⑦⑧|
口⑫⑧口 |⑨⑩⑪⑫|
75
②口口口 |①-②-|
口口④口 |③-④-|
①口口①
③口口口

口口⑦⑥
⑤口口口
口口口⑧ |⑤-⑥-|
口口口口 |⑦-⑧-|
76
口口口口 |①-②-|
④口口③ |③-④-|
口②口口
口口口①

口⑨⑤口
口⑩⑥口
口⑪⑦口 |⑤⑥⑦⑧|
口⑫⑧口 |⑨⑩⑪⑫|
77
②口口口 |①-②-|
口口④口 |③-④-|
①口口①
③口口口

口口⑦⑥
⑤口口口
口口口⑧ |⑤-⑥-|
口口口口 |⑦-⑧-|
78
口口口口 |①-②-|
④口口③ |③-④-|
口②口口
口口口①

口⑨⑤口
口⑩⑥口
口⑪⑦口 |⑤⑥⑦⑧|
口⑫⑧口 |⑨⑩⑪⑫|
79
②口口口 |①-②-|
口口口③ |③-④-|
①口口①
④口口口

⑧口⑤口
口⑥口口
口口口口 |⑤-⑥-|
口口⑦口 |⑦-⑧-|
80
口⑫⑧① |①-②-|
④⑪⑦③ |③-④-|
口⑩⑥口 |⑤⑥⑦⑧|
②⑨⑤口 |⑨⑩⑪⑫|
81
①口口① |①---|
③口口口 |②---|
口口口口 |----|
口口②口 |③---|
82
④⑤⑦⑥ |①--②|
口③③口 |--③-|
②口口② |④-⑤-|
口①①口 |⑥-⑦-|
83
口口口口 |①---|
口口②口 |----|
口①①口 |②---|
口口口口 |----|
84
口口口口 |①-②-③-|
⑦③⑥⑩ |④-⑤-⑥-|
⑪⑤②⑧ |⑦-⑧-⑨-|
⑨①④⑫ |⑩-⑪-⑫-|
85
口①①口 |①---|
口口口口 |----|
口口口口 |----|
口口口口 |----|

不確定度: 0

最終更新:2017年08月15日 23:36