INVISIBLE WORLD
SILKY F

EXTREME

Level: 8
BPM: 128
Notes: 656

1
口口口口 |----|
口口口口 |----|
口口口口 |----|
口口口口 |----|
2
②口口② |①-②-|
口①①口 |--③-|
④⑤⑤④ |--④-|
口③③口 |--⑤-|
3
②③③② |①-②-|
⑤①①口 |--③-|
⑤口口口 |--④-|
④口口④ |--⑤-|
4
②口口② |①-②-|
口①①① |--③-|
口口口①
口③③口

口⑥⑥口
口⑤⑤口
口④④口 |--④-|
口口口口 |⑤-⑥-|
5
③口口口 |----|
①⑦④② |①-②-|
⑤⑨口⑧ |③④⑤⑥|
口口⑥⑩ |⑦⑧⑨⑩|
6
口①①口 |①---|
②口③口 |②③--|
口口口口
口口口口

④口⑤口
口④口⑤
口口口口 |④-⑤-|
⑥⑦口口 |⑥-⑦-|
7
④口⑤口 |①②③-|
①④③⑤ |④-⑤-|
⑥口口② |--⑥-|
口⑥①口 |----|
8
口口口口 |①---|
②口③口 |②③--|
口口①口
口口口①

④口⑤口
⑥④口⑤
口口口口 |④-⑤-|
口口口口 |---⑥|
9
④口⑤口 |①-②-|
口④①⑤ |③-④-|
⑥口⑦口 |⑤-⑥-|
②⑥③⑦ |⑦---|
10
⑤口口④ |-----①|
①②口③ |②-③-|
口口口口 |④-⑤-|
口⑥⑥口 |⑥---|
11
口口口口 |①②③④|
①②③④ |-⑤⑥⑦|
⑦口口口
⑤口口⑥

⑨⑬⑬⑩
⑭⑫⑫⑭
口口口⑧ |⑧⑨⑩-|
口⑪⑪口 |⑪⑫⑬⑭|
12
⑧口口⑧ |①---|
口⑦⑦口 |②③④⑤|
④①①③ |⑥-⑦-|
②⑥⑥⑤ |--⑧-|
13
口口口口 |①-②③|
②口口③ |④-⑤⑥|
⑤①①⑥
口④④口

口⑦⑦口
口口口口
口⑩口口 |⑦-⑧⑨|
⑧口口⑨ |--⑩-|
14
⑤⑥⑦⑧ |①----②|
②③口④ |③-④-|
口口①口 |⑤⑥⑦⑧|
口⑪⑩⑨ |⑨⑩⑪-|
15
口④⑤口 |①②③-|
①口口② |④⑤-⑥|
口③③口
口⑥口口

口口口口
口⑧⑧口
口⑨⑨口 |⑦-⑧-|
⑩口⑦⑪ |⑨⑩⑪-|
16
口①①口 |①---|
口口②③ |②③④⑤|
口口④⑤
口口口口

口⑥⑦口
口⑨⑨口
口口口口 |--⑥⑦|
口⑧⑧口 |⑧-⑨-|
17
②口口② |①-②-|
口口口口 |-③④⑤|
口③④口
①⑤口①

口口口口
口口口口
口口口口 |⑥---|
⑦口⑥⑧ |---⑦-⑧--|
18
①口口② |①-②-|
④③③⑤ |--③-|
④③③⑤ |④-⑤-|
口⑥⑥口 |--⑥-|
19
①③⑤口 |①-②-|
②④⑥口 |③-④-|
口口口口 |⑤-⑥-|
口口⑦口 |--⑦-|
20
④口口⑤ |①-②-|
⑥口口⑦ |③---|
口口②③ |④-⑤-|
口口口① |⑥-⑦-|
21
口①①③ |①---|
③口口④ |--②-|
④口口口 |----|
口②②口 |--③④|
22
②③④口 |①---|
口⑥⑤口 |②-③-|
口⑤⑥① |④-⑤-|
①④③② |--⑥-|
23
①②③口 |①②③-|
口口口口 |④-⑤⑥|
口口口④ |----|
⑥⑤口口 |----|
24
④⑤⑥③ |①---|
①⑧⑦口 |②-③-|
口⑦⑧① |④-⑤-|
②⑥⑤④ |⑥-⑦⑧|
25
口①①口 |----|
口口口口 |--①-|
口口口口 |②---|
口②②口 |----|
26
③口④口 |----|
①③②④ |①②--|
口口口口 |③-④-|
⑤⑥口口 |⑤-⑥-|
27
④口⑤口 |①②③-|
①④③⑤ |④-⑤-|
⑥口口② |--⑥-|
口⑥①口 |----|
28
口口口口 |①---|
②口③口 |②③--|
口口①口
口口口①

④口⑤口
⑥④口⑤
口口口口 |④-⑤-|
口口口口 |---⑥|
29
④口⑤口 |①-②-|
口④①⑤ |③-④-|
⑥口⑦口 |⑤-⑥-|
②⑥③⑦ |⑦---|
30
④口口口 |①②③④|
口①①③ |⑤⑥⑦-|
⑥②口⑦
口⑤⑤口

口⑧⑧口
⑨口口⑫
口⑪⑪口 |⑧-⑨⑩|
⑬口口⑩ |⑪⑫⑬-|
31
口④④口 |-----①|
①②口③ |②-③-|
⑥口口⑧ |④-⑤⑥|
⑤口口⑦ |⑦⑧--|
32
①②②① |①②-③|
③④④③ |④-⑤⑥|
口⑤⑤口
⑥口口⑥

⑧口口⑧
⑨口口⑨
⑩口口⑩ |⑦-⑧-|
口⑦⑦口 |⑨-⑩-|
33
口口⑦⑧ |----|
⑤⑥口口 |①②③④|
口口口口 |⑤⑥-⑦|
④③②① |⑧---|
34
口⑥⑥口 |①--②--③-|
③⑤⑤③ |④--⑤--⑥-|
②④④②
①口口①

⑧口口口
口口口口
口口口口 |-⑦--|
⑦口口⑦ |--⑧-|
35
口口口① |①----②|
②③口④ |③-④-|
口口口口
口口口口

⑧口口⑧
口口口口
⑦⑥⑥⑦ |⑤⑥⑦-|
⑨⑤⑤⑨ |⑧⑨--|
36
口②②口 |①-②-|
③①①③ |③--④|
③④④③
口口口口

⑩口口⑩
口⑧⑨口
⑪口口⑪ |⑤⑥⑦⑧|
⑥⑤⑤⑦ |⑨⑩⑪-|
37
口口口口 |①②-③|
口口口口 |④---|
口①②口
口③④口

⑤口口⑥
⑦口口⑧
口⑨⑨口 |⑤⑥⑦⑧|
口口口口 |⑨---|
38
④③③④ |①②-③|
口⑤⑥口 |④-⑤⑥|
口⑥⑤口
②①①②

口⑧⑧口
⑨口口⑨
口口口口 |--⑦-|
⑦口口⑧ |⑧-⑨-|
39
③口口④ |①---|
口口口口 |--②-|
①口口① |③-④-|
⑤②②口 |--⑤-|
40
口口口口 |①-②-|
⑥④④口 |③-④⑤|
口⑤⑤口 |----|
口①②③ |--⑥-|
41
①⑦⑦③ |①-②-|
口⑥⑥② |③---|
口⑤⑤口 |④-⑤-|
口④④口 |⑥-⑦-|
42
①口口① |①---|
①口口① |----|
③口口③ |----|
口②②口 |②-③-|
43
口②②口 |①---|
①口口① |--②-|
口口口口 |③-④-|
③口口④ |----|
44
口①②③ |①-②-|
口⑤⑤口 |③-④⑤|
⑥④④口 |----|
口口口口 |--⑥-|
45
口④④口 |①-②-|
口⑤⑤口 |③---|
口⑥⑥② |④-⑤-|
①⑦⑦③ |⑥-⑦-|
46
口口口口 |①---|
口口口口 |----|
①口口① |----|
①口口① |----|
47
①②③④ |①--②|
①②⑤⑤ |--③-|
口口口⑥ |④---|
口口口⑥ |⑤-⑥-|
48
⑥口口⑥ |①--②|
⑤口口⑤ |--③-|
③②①口 |④--⑤|
④④①口 |--⑥-|
49
口①①口 |①--②|
口②②口 |----|
⑥⑤⑤⑥ |③-④-|
③④④③ |⑤-⑥-|
50
①②③③ |①--②|
①②④⑤ |--③-|
口口口口 |④---|
口口口口 |⑤---|
51
⑥口口口 |①--②|
⑥口口口 |--③-|
⑤⑤②① |④---|
④③②① |⑤-⑥-|
52
口①②② |①--②|
口①③④ |--③-|
⑤口口⑤ |④--⑤|
⑥口口⑥ |--⑥-|
53
③口口③ |①--②|
口口口口 |--③-|
口②②口
口①①口

口口口口
口口口口
⑤口口⑤ |----|
口④④口 |④-⑤-|
54
口②②口 |①---|
①③③① |②---|
口④④口 |③---|
口口口口 |④---|
55
口口口口 |①-②-|
④口口⑤ |--③-|
②口口③ |--④-|
口①①口 |--⑤-|
56
口口口口 |①-②-|
⑤③③⑥ |③-④-|
②口口④ |--⑤-|
口①①口 |--⑥-|
57
③口④口 |----|
①③②④ |①②--|
口口口口 |③-④-|
口口口口 |----|
58
③口④口 |①-②-|
①③②④ |③-④-|
⑤口⑥口 |--⑤-|
口⑤口⑥ |--⑥-|
59
口口口口 |①---|
②口③口 |②③--|
口口口①
口口①口

④口⑤口
口④口⑤
口口口口 |④-⑤-|
口口⑥口 |--⑥-|
60
口口口③ |①-②-|
口口③口 |--③-|
口口口口
②①口口

口④口口
④口口口
口⑥口⑤ |④-⑤-|
⑥口⑤口 |⑥---|
61
口口口口 |①---|
②口③口 |②③--|
口口①口
口①口口

④口⑤口
口④口⑤
口口口口 |④-⑤-|
⑥⑦口口 |⑥-⑦-|
62
④口⑤口 |①②③-|
①④③⑤ |④-⑤-|
⑥口口② |--⑥-|
口⑥①口 |----|
63
口口口口 |①---|
②口③口 |②③--|
口口①口
口口口①

④口⑤口
⑥④口⑤
口口口口 |④-⑤-|
口口口口 |---⑥|
64
④口口④ |①-②-|
口口①口 |③-④-|
口口口口
②口③口

口⑤⑤口
口⑥⑥口
⑦⑦⑦⑦ |--⑤--⑥--|
⑧⑧⑧⑧ |⑦--⑧----|


不确定度: 0

最終更新:2012年11月11日 16:32