Twinbee's Home Town Song
Sota Fujimori

BASIC

Level: 2
BPM: 168
Notes: 162

1
口口口口 |----|
口口口口 |----|
口口口口 |----|
口口口口 |----|
2
口口口口 |----|
①口口口 |----|
口口口口 |----|
口口口口 |①---|
3
口口口口 |----|
口口口① |----|
口口口口 |----|
口口口口 |①---|
4
口口口口 |----|
口口口口 |----|
口口口口 |----|
口口口口 |----|
5
口口口口 |①---|
口口口口 |----|
口①①口 |----|
口口口口 |----|
6
口口口口 |①---|
口①①口 |----|
口口口口 |----|
口口口口 |----|
7
口口口口 |----|
口口口口 |----|
口口口口 |----|
口口口口 |----|
8
①口口口 |①---|
②口口口 |----|
口口口口 |②---|
口口口口 |----|
9
口口口口 |①---|
口口口口 |----|
①口口口 |②---|
②口口口 |----|
10
口口口口 |①---|
口口口口 |----|
口②口口 |②---|
口①口口 |----|
11
口②口口 |①---|
口①口口 |----|
口口口口 |②---|
口口口口 |----|
12
口口①口 |①---|
口口②口 |----|
口口口口 |②---|
口口口口 |----|
13
口口口口 |①---|
口口口口 |----|
口口①口 |②---|
口口②口 |----|
14
口口口口 |①---|
口口口口 |----|
口口口② |②---|
口口口① |----|
15
口口口② |①---|
口口口① |----|
口口口口 |②---|
口口口口 |----|
16
口①口口 |①---|
口口口口 |----|
口口口口 |----|
口口口口 |----|
17
口口①口 |①---|
口口口口 |----|
口口口口 |----|
口口口口 |----|
18
①口口口 |①---|
口口口口 |----|
口口口口 |----|
口口口口 |----|
19
口口口① |①---|
口口口口 |----|
口口口口 |----|
口口口口 |----|
20
口口口口 |①---|
口①口口 |----|
口口口口 |----|
口口口口 |----|
21
口口口口 |①---|
口口①口 |----|
口口口口 |----|
口口口口 |----|
22
口口口口 |①---|
①口口口 |----|
口口口口 |----|
口口口口 |----|
23
口口口口 |①---|
口口口① |----|
口口口口 |----|
口口口口 |----|
24
口①口口 |①---|
口②口口 |----|
口口口口 |②---|
口口口口 |----|
25
口口口口 |①---|
口口口口 |----|
口①口口 |②---|
口②口口 |----|
26
口口口口 |①---|
口口口口 |----|
口口②口 |②---|
口口①口 |----|
27
口口②口 |①---|
口口①口 |----|
口口口口 |②---|
口口口口 |----|
28
①口口② |①---|
口口口口 |----|
口口口口 |②---|
口口口口 |----|
29
口口口口 |①---|
①口口② |----|
口口口口 |②---|
口口口口 |----|
30
口口口口 |①---|
口①①口 |----|
口口口口 |----|
口口口口 |----|
31
口口口口 |①---|
口口口口 |----|
口①①口 |----|
口口口口 |----|
32
①口口② |①---|
口口口口 |----|
口口口口 |②---|
口口口口 |----|
33
口口口口 |①---|
①口口② |----|
口口口口 |②---|
口口口口 |----|
34
口口口口 |①---|
口①①口 |----|
口口口口 |----|
口口口口 |----|
35
口口口口 |①---|
口口口口 |----|
口①①口 |----|
口口口口 |----|
36
口口口口 |①---|
①②口口 |----|
口口口口 |②---|
口口口口 |----|
37
口口口口 |①---|
口口①② |----|
口口口口 |②---|
口口口口 |----|
38
口口口口 |①---|
口口口口 |----|
口口②① |②---|
口口口口 |----|
39
口口口口 |①---|
口口口口 |----|
②①口口 |②---|
口口口口 |----|
40
口口口口 |①---|
①②口口 |----|
口口口口 |②---|
口口口口 |----|
41
口口口口 |①---|
口口①② |----|
口口口口 |②---|
口口口口 |----|
42
口口口口 |①---|
口口口口 |----|
口口②① |②---|
口口口口 |----|
43
口口口口 |①---|
口口口口 |----|
②①口口 |②---|
口口口口 |----|
44
口口口口 |①---|
口①口口 |----|
口口口口 |----|
口口口口 |----|
45
口口口口 |①---|
口口①口 |----|
口口口口 |----|
口口口口 |----|
46
口口口口 |①---|
口口口口 |----|
口①口口 |----|
口口口口 |----|
47
口口口口 |①---|
口口口口 |----|
口口①口 |----|
口口口口 |----|
48
口口口口 |①---|
①口口口 |----|
口口口口 |----|
口口口口 |----|
49
口口口口 |①---|
口口口① |----|
口口口口 |----|
口口口口 |----|
50
口口口口 |①---|
口口口口 |----|
①口口口 |----|
口口口口 |----|
51
口口口口 |①---|
口口口口 |----|
口口口① |----|
口口口口 |----|
52
口口口口 |①---|
口①口口 |----|
口口口口 |----|
口口口口 |----|
53
口口口口 |①---|
口口①口 |----|
口口口口 |----|
口口口口 |----|
54
口口口口 |①---|
口口口口 |----|
口①口口 |----|
口口口口 |----|
55
口口口口 |①---|
口口口口 |----|
口口①口 |----|
口口口口 |----|
56
口①①口 |①---|
口口口口 |----|
口口口口 |----|
口口口口 |----|
57
口口口口 |①---|
口①①口 |----|
口口口口 |----|
口口口口 |----|
58
口口口口 |①---|
口口口口 |----|
口①①口 |----|
口口口口 |----|
59
口口口口 |①---|
口口口口 |----|
口口口口 |----|
口①①口 |----|
60
口口口口 |①---|
①②③④ |②---|
口口口口 |③---|
口口口口 |④---|
61
口口口口 |①---|
口②②口 |----|
口①①口 |②---|
口口口口 |----|
62
口口口口 |①---|
口②②口 |----|
口①①口 |②---|
口口口口 |----|
63
口口口口 |①---|
①口口① |----|
②口口② |②---|
口口口口 |----|
64
口口口口 |①---|
④③②① |②---|
口口口口 |③---|
口口口口 |④---|
65
口口口口 |①---|
口②②口 |----|
口①①口 |②---|
口口口口 |----|
66
口口口口 |①---|
口②②口 |----|
口①①口 |②---|
口口口口 |----|
67
口口口口 |①---|
①口口① |----|
②口口② |②---|
口口口口 |----|
68
口口口口 |①---|
口③④口 |②---|
口①②口 |③---|
口口口口 |④---|
69
口口口口 |①---|
①口口② |②---|
③口口④ |③---|
口口口口 |④---|
70
口口口口 |①---|
口③④口 |②---|
口①②口 |③---|
口口口口 |④---|
71
口口口口 |①---|
①口口② |②---|
③口口④ |③---|
口口口口 |④---|
72
口口口口 |①---|
口①②口 |②---|
口③④口 |③---|
口口口口 |④---|
73
口口口口 |①---|
③口口④ |②---|
①口口② |③---|
口口口口 |④---|
74
口口口口 |①---|
口①②口 |②---|
口③④口 |③---|
口口口口 |④---|
75
口口口口 |①---|
③口口④ |②---|
①口口② |③---|
口口口口 |④---|
76
口①①口 |①---|
口②②口 |----|
口口口口 |----|
口口口口 |②---|
77
口口口口 |----|
口口口口 |----|
口①①口 |①---|
口口口口 |----|
78
口口口口 |----|
口口口口 |①---|
口口口口 |----|
口①①口 |----|

不確定度: 0

最終更新:2017年08月15日 23:35