Twinbee's Home Town Song
Sota Fujimori

ADVANCED

Level: 6
BPM: 168
Notes: 417

1
口口口口 |----|
口口口口 |----|
口口口口 |----|
口口口口 |----|
2
①口口口 |----|
口口口口 |----|
口②口口 |----|
口口口口 |①---②-|
3
口④口口 |①-②-③-|
口②③口 |④-----|
口口①口
口口口口

口口口⑤
口口口口
口⑥⑦口 |⑤-----|
口⑧口口 |⑥-⑦-⑧-|
4
口口口口 |①---|
口口口口 |----|
口口口口 |----|
口口①口 |----|
5
③口口口 |①---②-|
②口口口 |③---|
口①①口
口口口口

口口口口
口口口口
口④④口 |----|
口口口口 |④---|
6
口①①口 |①---|
口口口口 |----|
口口口口 |----|
口口口口 |----|
7
⑦口口⑦ |①-②-|
①②③④ |③-④-|
口⑤⑥口 |⑤-⑥-|
口⑥⑤口 |⑦---|
8
口口口口 |①---|
②口口④ |②---|
①口口③ |③---|
口口口口 |④---|
9
口口口口 |①---|
口①③口 |②---|
口②④口 |③---|
口口口口 |④---|
10
①②③④ |①---|
口口口口 |②---|
口口口口 |③---|
口口口口 |④---|
11
口口口口 |①---|
④③②① |②---|
口口口口 |③---|
口口口口 |④---|
12
口口口口 |①---|
④口口② |②---|
③口口① |③---|
口口口口 |④---|
13
口口口口 |①---|
口③①口 |②---|
口④②口 |③---|
口口口口 |④---|
14
④③②① |①---|
口口口口 |②---|
口口口口 |③---|
口口口口 |④---|
15
口口口口 |①---|
①②③④ |②---|
口口口口 |③---|
口口口口 |④---|
16
①口口① |①---|
口口③口 |②-③-|
口②口口 |----|
口口口口 |----|
17
口口口口 |①---|
口口②口 |②-③-|
口③口口 |----|
①口口① |----|
18
①口口① |①---|
口③口口 |②-③-|
口口②口 |----|
口口口口 |----|
19
口口口口 |①---|
口②口口 |②-③-|
口口③口 |----|
①口口① |----|
20
口口③口 |①---|
①口口① |②-③-|
口②口口 |----|
口口口口 |----|
21
口口口口 |①---|
口②口口 |②-③-|
①口口① |----|
口口③口 |----|
22
④③口④ |①---|
①口口① |②-③-|
口口②口 |----|
口口口口 |④---|
23
口口①口 |①-②-|
口口口口 |----|
口②口口
口口口口

口④④口
口④④口
③口口③ |③---|
口口口口 |④---|
24
口口口口 |①---|
③口口④ |②-③-|
②⑥①⑤ |--④-|
口①⑥口 |⑤-⑥-|
25
②口口① |----|
口口口口 |----|
①口口② |①---|
口口口口 |②---|
26
口口口口 |①---|
①①①① |--②-|
口②③口 |③---|
口③②口 |----|
27
①口口口 |----|
口③口① |----|
口口口② |①-②-|
口口口口 |--③-|
28
⑥③①④ |①---|
⑤口②⑤ |②-③-|
④①③⑥ |--④-|
口口口口 |⑤-⑥-|
29
④口③⑥ |①---|
⑤①①⑤ |②-③-|
⑥③口④ |--④-|
口②口口 |⑤-⑥-|
30
口口口口 |①---|
口①①口 |②-③-|
口口口口 |----|
口②③口 |----|
31
口口口口 |①---|
①口口① |②-③-|
口口口口 |----|
口②③口 |----|
32
⑥③①④ |①---|
⑤口②⑤ |②-③-|
④①③⑥ |--④-|
口口口口 |⑤-⑥-|
33
④口③⑥ |①---|
⑤①①⑤ |②-③-|
⑥③口④ |--④-|
口②口口 |⑤-⑥-|
34
口口口口 |①---|
口①①口 |②-③-|
口口口口 |----|
口②③口 |----|
35
①口口口 |①-②-|
口②口口 |③-④-|
口口③口 |----|
口口口④ |----|
36
口①③口 |①---|
①口口③ |--②-|
口②②口 |----|
口口口口 |③---|
37
③口口口 |--①-|
口口口口 |----|
②①①口 |②---|
口口口口 |③---|
38
口①口口 |①---|
①口口口 |--②-|
口②②口 |③---|
口③③口 |----|
39
②口口① |----|
口口口口 |----|
①口口② |①---|
口口口口 |②---|
40
口③①口 |①---|
③口口① |--②-|
口②②口 |----|
口口口口 |③---|
41
口口口③ |--①-|
口口口口 |----|
口①①② |②---|
口口口口 |③---|
42
口①口口 |①---|
①口口口 |--②-|
口②②口 |③---|
口③③口 |----|
43
口口口口 |----|
①口口② |----|
③口口④ |①-②-|
口口口口 |③-④-|
44
口⑤④口 |①---|
口①口口 |②---|
口②口口 |③---|
口③口口 |④-⑤-|
45
口④⑤口 |①---|
口口①口 |②---|
口口②口 |③---|
口口③口 |④-⑤-|
46
口⑤④口 |①---|
口①口口 |②---|
口②口口 |③---|
口③口口 |④-⑤-|
47
口④⑤口 |①---|
口口①口 |②---|
口口②口 |③---|
口口③口 |④-⑤-|
48
①口口口 |①---|
②口口口 |②---|
③口口口 |③---|
口⑤④口 |④-⑤-|
49
口口口③ |①---|
口口口② |②---|
口口口① |③---|
口④⑤口 |④-⑤-|
50
③口口口 |①---|
②口口口 |②---|
①口口口 |③---|
口⑤④口 |④-⑤-|
51
口口口③ |①---|
口口口② |②---|
口口口① |③---|
口④⑤口 |④-⑤-|
52
口口口口 |①---|
口②口④ |②---|
①口③口 |③---|
口口口口 |④---|
53
口口口口 |①---|
④口②口 |②---|
口③口① |③---|
口口口口 |④---|
54
口②口④ |①---|
口口口口 |②---|
口口口口 |③---|
①口③口 |④---|
55
④口②口 |①---|
口口口口 |②---|
口口口口 |③---|
口③口① |④---|
56
口口口口 |①---|
口口口口 |----|
口①②口 |②---|
口口口口 |----|
57
口口口③ |①---|
口①②口 |----|
口口口口 |②---|
口口口口 |③---|
58
口口口口 |①---|
口①②口 |----|
口口口口 |②---|
口口口口 |----|
59
口③③口 |①---|
③口口③ |----|
口①②口 |②---|
口口口口 |③---|
60
①⑥口⑥ |①---|
口①⑥口 |②-③-|
口⑤口② |--④-|
口④口③ |⑤-⑥-|
61
③⑥③⑥ |--①-|
口③⑥口 |②-③-|
口⑤②口 |--④-|
口④①口 |⑤-⑥-|
62
③⑥③⑥ |--①-|
口③⑥口 |②-③-|
⑤口②口 |--④-|
口④①口 |⑤-⑥-|
63
③⑥③⑥ |--①-|
④③⑥④ |②-③-|
口口口② |--④-|
⑤口①⑤ |⑤-⑥-|
64
口⑤口⑤ |----|
口口⑤口 |①-②-|
口④①口 |--③-|
口③②口 |④-⑤-|
65
③⑥③⑥ |--①-|
口③⑥口 |②-③-|
口⑤②口 |--④-|
口④①口 |⑤-⑥-|
66
③⑥③⑥ |--①-|
口③⑥口 |②-③-|
⑤口②口 |--④-|
口④①口 |⑤-⑥-|
67
③⑥③⑥ |--①-|
④③⑥④ |②-③-|
口口口② |--④-|
⑤口①⑤ |⑤-⑥-|
68
口口口口 |①---|
口口口口 |②-③-|
口口①口
口③②口

口口口口
口口口口
口④⑤口 |--④-|
口口口口 |⑤---|
69
口口口口 |----|
②口口① |----|
口口口口 |①---|
①口口② |②---|
70
①③③① |①---|
口口口口 |--②-|
口②②口 |③---|
口口口口 |----|
71
口口口口 |----|
①口口② |----|
口口口口 |①---|
②口口① |②---|
72
口口口口 |①---|
口口口口 |②-③-|
口①口口
口②③口

口口口口
口口口口
口⑤④口 |--④-|
口口口口 |⑤---|
73
口口口口 |----|
①口口② |----|
口口口口 |①---|
②口口① |②---|
74
①③③① |①---|
口口口口 |--②-|
口②②口 |③---|
口口口口 |----|
75
口口口口 |----|
口口口口 |----|
口口口口 |----|
口口口口 |----|
76
口②③口 |①---|
①口口④ |②---|
口口口口 |③---|
口口口口 |④---|
77
口口口口 |①---|
口口口口 |②---|
④口口① |③---|
口③②口 |④---|
78
口口口口 |①---|
口①口口 |②---|
口②②口 |----|
口口口口 |----|

不確定度: 0

最終更新:2017年08月15日 23:35