Qubellic Prism
Nazzo-Non-Heat

BASIC

Level: 4
BPM: 170
Notes: 328

1
口口口口 |----|
口口口口 |----|
口口口口 |----|
口口口口 |----|
2
口口口口 |①---|
①口口① |--②-|
口②②口 |----|
③口口③ |③---|
3
口口口口 |----|
口口口口 |----|
口口口口 |----|
口口口口 |----|
4
口口口口 |①---|
口③③口 |--②-|
①口口① |----|
口②②口 |--③-|
5
口口口口 |----|
口口口口 |--①-|
口①①口 |----|
口②②口 |②---|
6
④④③③ |①---|
①口口① |--②-|
口②②口 |--③-|
口口口口 |--④-|
7
口口口口 |----|
①口口① |①---|
口②②口 |--②-|
口口口口 |----|
8
口口口口 |①---|
①③③① |--②-|
口②②口 |----|
口口口口 |--③-|
9
口口口口 |----|
口②②口 |--①-|
口①①口 |----|
口口口口 |②---|
10
①②②① |①---|
口③③口 |--②-|
口④④口 |--③-|
口口口口 |--④-|
11
口口口口 |----|
口口口口 |----|
口口口口 |----|
口口口口 |----|
12
口口口口 |----|
口口口口 |----|
口口口口 |----|
口口口口 |----|
13
口口口口 |----|
口口口口 |----|
口口口口 |----|
口口口口 |----|
14
口口口口 |----|
口口口口 |----|
口口口口 |----|
口口口口 |----|
15
口口口口 |①---|
口口口口 |----|
口口口② |--②-|
口①①③ |--③-|
16
口口口口 |----|
口②②口 |--①-|
口①①口 |----|
口口口口 |②---|
17
口口口口 |①---|
口口口口 |----|
②口口口 |--②-|
③①①口 |--③-|
18
口口口口 |----|
口③③口 |①---|
②②①① |②---|
口口口口 |③---|
19
口口口口 |①---|
口口口口 |----|
口口口② |--②-|
口①①③ |--③-|
20
口口口口 |----|
口②②口 |--①-|
口①①口 |----|
口口口口 |②---|
21
口④口口 |①---|
口③口口 |--②-|
口②口口 |--③-|
口①①口 |--④-|
22
①口口① |----|
口口口口 |①---|
口②②口 |--②-|
口口口口 |----|
23
口口口口 |①---|
口口口口 |----|
口口口② |--②-|
口①①③ |--③-|
24
口口口口 |----|
口②②口 |--①-|
口①①口 |----|
口口口口 |②---|
25
口口口口 |①---|
口口口口 |----|
②口口口 |--②-|
③①①口 |--③-|
26
口口口口 |----|
口③③口 |①---|
②②①① |②---|
口口口口 |③---|
27
口口口口 |①---|
口口口口 |----|
口口口② |--②-|
口①①③ |--③-|
28
口口口口 |----|
口②②口 |--①-|
口①①口 |----|
口口口口 |②---|
29
口④口口 |①---|
口③口口 |--②-|
口②口口 |--③-|
口①①口 |--④-|
30
①口口① |----|
②口口② |①---|
口口口口 |--②-|
口口口口 |----|
31
口口口口 |①---|
口口口口 |--②-|
①口口① |----|
②口口② |----|
32
口口口口 |----|
口口口口 |----|
口口口口 |----|
口口口口 |----|
33
口口口口 |----|
口口口口 |----|
口口口口 |----|
口口口口 |----|
34
口口口口 |①---|
口口③口 |②---|
口口②口 |③---|
口④①口 |④---|
35
口口口口 |①---|
口②口口 |②---|
④①口③ |③---|
口口口口 |④---|
36
口口口口 |①---|
口口③口 |②---|
口口②口 |③---|
口④①口 |④---|
37
口口口口 |①---|
口②口口 |②---|
④①口③ |③---|
口口口口 |④---|
38
口口口口 |①---|
口口③口 |②---|
口口②口 |③---|
口④①口 |④---|
39
口口口口 |①---|
口②口口 |②---|
④①口③ |③---|
口口口口 |④---|
40
口④④口 |①---|
①③③① |--②-|
口②②口 |--③-|
口口口口 |--④-|
41
口口口口 |----|
口口口口 |----|
口口口口 |----|
口口口口 |----|
42
口④④口 |①---|
口口③口 |②---|
口口②口 |③---|
口口①口 |④---|
43
口口口口 |----|
口口口口 |----|
①口口口 |----|
口口口口 |①---|
44
口④④口 |①---|
口③口口 |②---|
口②口口 |③---|
口①口口 |④---|
45
口口口口 |----|
口口口口 |----|
口口口① |----|
口口口口 |①---|
46
口④④口 |①---|
口口③口 |②---|
口口②口 |③---|
口口①口 |④---|
47
口口口口 |----|
口口口口 |----|
①口口口 |----|
口口口口 |①---|
48
口④④口 |①---|
①③③① |--②-|
口②②口 |--③-|
口口口口 |--④-|
49
口口口口 |----|
口口口口 |----|
口口口口 |----|
口口口口 |----|
50
口口口口 |①---|
①④④① |--②-|
口③③口 |--③-|
口②②口 |--④-|
51
①口②① |----|
口口口口 |①---|
口口口口 |----|
口口口口 |②---|
52
口①口口 |①---|
口③②口 |②---|
口口④口 |③---|
口口口口 |④---|
53
口口口口 |①---|
口口口口 |②---|
口①④口 |③---|
口③②口 |④---|
54
口口口口 |①---|
①④④① |--②-|
口③③口 |--③-|
口②②口 |--④-|
55
①口②① |----|
口口口口 |①---|
口口口口 |----|
口口口口 |②---|
56
口①口口 |①---|
口③②口 |②---|
口口④口 |③---|
口口口口 |④---|
57
口口口口 |①---|
口口口口 |②---|
口①④口 |③---|
口③②口 |④---|
58
①口口① |①---|
口②②口 |--②-|
③口口③ |----|
口口口口 |③---|
59
口口口口 |----|
口口口口 |----|
口口口口 |----|
口口口口 |----|
60
口口口口 |①---|
口口口① |②---|
口口②口 |③---|
口③口口 |----|
61
口口口口 |①---|
口口①口 |②---|
口②口口 |----|
口③③口 |③---|
62
口口口口 |①---|
①口口口 |②---|
口②口口 |③---|
口口③口 |----|
63
口口口口 |①---|
①口③口 |②---|
口②口④ |③---|
口口口口 |④---|
64
口口口口 |①---|
①口口口 |②---|
口②口口 |③---|
口口③口 |----|
65
口①口口 |①---|
口口②口 |②---|
口③口口 |③---|
口口④口 |④---|
66
①口口① |①---|
口②②口 |--②-|
③口口③ |----|
口口口口 |③---|
67
口③③口 |--①-|
口②②口 |--②-|
口口口口 |--③-|
口①①口 |----|
68
口口口① |①---|
口口②口 |②---|
口③口口 |③---|
口口口口 |----|
69
口口口口 |①---|
口①口口 |②---|
④口②④ |③---|
口③③口 |④---|
70
①口口口 |①---|
口②口口 |②---|
口口③口 |③---|
口口口口 |----|
71
口口口口 |①---|
①口③口 |②---|
口②口④ |③---|
口口口口 |④---|
72
①口口口 |①---|
口②口口 |②---|
口口③口 |③---|
口口口口 |----|
73
口口口口 |①---|
口口①口 |②---|
④②口④ |③---|
口③③口 |④---|
74
①口口① |①---|
口②②口 |--②-|
③口口③ |----|
口口口口 |③---|
75
口口口口 |--①-|
口口口口 |----|
口口口口 |----|
口①①口 |----|
76
口口口口 |①---|
口口口口 |----|
口口口② |--②-|
口①①③ |--③-|
77
口口口口 |----|
口②②口 |--①-|
口①①口 |----|
口口口口 |②---|
78
口口口口 |①---|
口口口口 |----|
②口口口 |--②-|
③①①口 |--③-|
79
口口口口 |----|
口③③口 |①---|
②②①① |②---|
口口口口 |③---|
80
口口口口 |①---|
口口口口 |----|
口口口② |--②-|
口①①③ |--③-|
81
口口口口 |----|
口②②口 |--①-|
口①①口 |----|
口口口口 |②---|
82
口口口口 |①---|
口口口口 |②---|
口②②口 |----|
口①①口 |----|
83
口口口口 |①---|
①口口① |--②-|
口②②口 |----|
③口口③ |③---|
84
口口口口 |--①-|
口①①口 |----|
口①①口 |----|
口口口口 |----|

不確定度: 0

最終更新:2017年08月15日 23:20