秘密がーる♡乙女
MaMiKa(松下×mitsu×T.kakuta)

BASIC

Level: 4
BPM: 180
Notes: 281

1
口口口口 |----|
口口口口 |----|
口口口口 |----|
口口口口 |----|
2
口口口口 |----|
口口口口 |----|
口口口口 |----|
口口口口 |----|
3
口口口口 |①---|
口口口口 |----|
①口口② |②---|
口口口口 |----|
4
口口口口 |①--②|
口①①口 |--③-|
口②②口 |----|
口③③口 |----|
5
口口口口 |①---|
①口口② |----|
口口口口 |②---|
口口口口 |----|
6
口口口口 |①--②|
口①①口 |--③-|
口②②口 |----|
口③③口 |----|
7
①口口② |①---|
口口口口 |----|
口口口口 |②---|
口口口口 |----|
8
口口口口 |①--②|
口①①口 |--③-|
口②②口 |----|
口③③口 |----|
9
①口口① |①---|
②口口② |----|
口口口口 |②---|
口口口口 |----|
10
口口口口 |①---|
口口口口 |----|
①口口① |②---|
②口口② |----|
11
口口口口 |①---|
口口口口 |----|
口②②口 |②---|
口①①口 |----|
12
②口口② |①---|
口①①口 |----|
口口口口 |②---|
口口口口 |----|
13
口口口口 |①---|
口口口口 |----|
②①口口 |②---|
口口口口 |----|
14
口口口口 |①---|
①②口口 |----|
口口口口 |②---|
口口口口 |----|
15
口口口口 |①---|
口口①② |----|
口口口口 |②---|
口口口口 |----|
16
口口口口 |①---|
口口口口 |----|
口口②① |②---|
口口口口 |----|
17
口口口口 |①---|
口口口口 |----|
②①口口 |②---|
口口口口 |----|
18
口口口口 |①---|
①②口口 |----|
口口口口 |②---|
口口口口 |----|
19
口口口口 |①---|
口口①② |----|
口口口口 |②---|
口口口口 |----|
20
口口口口 |①---|
口口口口 |----|
口②②① |②---|
口口口口 |----|
21
①口口① |①---|
口口口口 |----|
口口②口 |②---|
口口口口 |----|
22
①口口① |①---|
口口口口 |----|
口②口口 |②---|
口口口口 |----|
23
①口口① |①---|
口口口口 |----|
口口②口 |②---|
口口口口 |----|
24
口口口口 |①---|
口口口口 |----|
口①口口 |②---|
口②②口 |----|
25
口①①② |①---|
口口口口 |----|
口口口口 |②---|
口口口口 |----|
26
②口口口 |①---|
口①①口 |----|
口口口口 |②---|
口口口口 |----|
27
口口口② |①---|
口口口口 |----|
口①①口 |②---|
口口口口 |----|
28
②口口口 |①---|
口口口口 |----|
口口口口 |②---|
口①①口 |----|
29
口口口口 |①---|
口口口口 |----|
口口口口 |②---|
口②①口 |----|
30
口口口口 |①---|
口口口口 |----|
口②①口 |②---|
口口口口 |----|
31
口口口口 |①---|
口②①口 |----|
口口口口 |②---|
口口口口 |----|
32
②②①① |①---|
口口口口 |----|
口口口口 |②---|
口口口口 |----|
33
口口口口 |①---|
口口口口 |----|
口①①口 |----|
口口口口 |----|
34
口口①① |①---|
口口口口 |----|
口口口口 |----|
口口口口 |----|
35
口口口口 |①---|
口口口口 |----|
口①①口 |----|
口口口口 |----|
36
①①口口 |①---|
口口口口 |----|
口口口口 |----|
口口口口 |----|
37
口口口口 |①---|
口口口口 |----|
口①①口 |----|
口口口口 |----|
38
口口①① |①---|
口口口口 |----|
口口口口 |----|
口口口口 |----|
39
口口口口 |①---|
口口口口 |----|
口①①口 |----|
口口口口 |----|
40
①①口口 |①---|
口口口口 |----|
口口口口 |----|
口口口口 |----|
41
口口口口 |①---|
口口口口 |----|
②口口① |②---|
口口口口 |----|
42
口口口口 |①---|
②口口① |----|
口口口口 |②---|
口口口口 |----|
43
②口口① |①---|
口口口口 |----|
口口口口 |②---|
口口口口 |----|
44
口口口口 |①---|
口①①口 |----|
口①①口 |----|
口口口口 |----|
45
口口①口 |①---|
口口②口 |②---|
口口③口 |③---|
口口④口 |④---|
46
口①口口 |①---|
口②口口 |②---|
口③口口 |③---|
口④口口 |④---|
47
④口口口 |①---|
③口口口 |②---|
②口口口 |③---|
①口口口 |④---|
48
口②①口 |①---|
口②①口 |②---|
口④③口 |③---|
口④③口 |④---|
49
口口口④ |①---|
口口口③ |②---|
口口口② |③---|
口口口① |④---|
50
口口①口 |①---|
口口②口 |②---|
口口③口 |③---|
口口④口 |④---|
51
④口口口 |①---|
③口口口 |②---|
②口口口 |③---|
①口口口 |④---|
52
口②①口 |①---|
口②①口 |②---|
口④③口 |③---|
口④③口 |④---|
53
口口①口 |①---|
口口②口 |②---|
口口③口 |③---|
口口④口 |④---|
54
口④口口 |①---|
口③口口 |②---|
口②口口 |③---|
口①口口 |④---|
55
①口口① |----|
①口口① |①---|
口③②口 |②---|
口口口口 |③---|
56
口④③口 |①---|
口②①口 |②---|
口口口口 |③---|
口口口口 |④---|
57
口口口① |①---|
口口②口 |②---|
口③口口 |③---|
④口口口 |④---|
58
①口口口 |①---|
口②口口 |②---|
口口③口 |③---|
口口口④ |④---|
59
口口口口 |①---|
口②①口 |②---|
口④③口 |③---|
口口口口 |④---|
60
②②②② |①---|
口口口口 |----|
口口口口 |②---|
口①①口 |----|
61
口口口口 |①---|
口口口口 |----|
口①口口 |----|
口口①口 |----|
62
口口口口 |①---|
口口口口 |----|
口口①口 |----|
口①口口 |----|
63
口口口口 |①---|
口口口口 |----|
口①口口 |----|
口口①口 |----|
64
口口口口 |①---|
口口口口 |----|
口口①口 |----|
口①口口 |----|
65
口①口口 |①---|
口口①口 |----|
口口口口 |----|
口口口口 |----|
66
口口①口 |①---|
口①口口 |----|
口口口口 |----|
口口口口 |----|
67
口①口口 |①---|
口口①口 |----|
口口口口 |----|
口口口口 |----|
68
口口①口 |①---|
口①口口 |----|
口口口口 |----|
口口口口 |----|
69
口口口口 |①---|
口口①口 |----|
口②①口 |②---|
口口口口 |----|
70
②②口口 |①---|
口①口口 |----|
口口口口 |②---|
口口口口 |----|
71
口口口口 |①---|
口①口口 |----|
口①②口 |②---|
口口口口 |----|
72
口口②② |①---|
口口①口 |----|
口口口口 |②---|
口口口口 |----|
73
口口口口 |①---|
口口口口 |----|
口②①口 |②---|
口口口口 |----|
74
口口口口 |①---|
口②①口 |----|
口口口口 |②---|
口口口口 |----|
75
②口口① |①---|
口口口口 |----|
口口口口 |②---|
口口口口 |----|
76
口口口口 |①---|
口①①口 |----|
口①①口 |----|
口口口口 |----|
77
口口口口 |----|
口口口口 |----|
口口口口 |----|
口口口口 |----|
78
口口①口 |①---|
口口②口 |②---|
口口③口 |③---|
口口④口 |④---|
79
口④口口 |①---|
口③口口 |②---|
口②口口 |③---|
口①口口 |④---|
80
①口口① |----|
口②②口 |①---|
口③③口 |②---|
口口口口 |③---|
81
口口口口 |①---|
④口口④ |②---|
③口口③ |③---|
②①①② |④---|
82
口①①口 |①---|
口④④口 |②---|
③口口③ |③---|
口②②口 |④---|
83
②①①② |①---|
③口口③ |②---|
④口口④ |③---|
口口口口 |④---|
84
口口口口 |①---|
口口口口 |----|
口②②口 |②---|
①口口① |----|
85
①①①① |①---|
口②②口 |----|
口②②口 |----|
口口口口 |②---|

不確定度: 0

最終更新:2017年08月15日 23:19